<?xml version="1.0" standalone="no"?>
<!DOCTYPE svg PUBLIC "-//W3C//DTD SVG 1.1//EN" "http://www.w3.org/Graphics/SVG/1.1/DTD/svg11.dtd" >
<svg xmlns="http://www.w3.org/2000/svg">
<metadata>Generated by IcoMoon</metadata>
<defs>
<font id="dentco" horiz-adv-x="1024">
<font-face units-per-em="1024" ascent="960" descent="-64" />
<missing-glyph horiz-adv-x="1024" />
<glyph unicode="&#x20;" horiz-adv-x="512" d="" />
<glyph unicode="&#xe900;" glyph-name="arrow-right" d="M782.857 397.307l-440.304-440.29c-28.009-28.022-73.42-28.022-101.415 0-27.997 27.997-27.997 73.406 0 101.401l389.601 389.589-389.589 389.576c-27.997 28.009-27.997 73.413 0 101.41 27.997 28.009 73.406 28.009 101.415 0l440.304-440.297c13.999-14.005 20.99-32.342 20.99-50.687 0-18.354-7.005-36.704-21.001-50.703z" />
<glyph unicode="&#xe901;" glyph-name="birthday" d="M999.444 127.398h-81.594c-0.088 0-0.177 0-0.265 0h-73.398v196.921c5.019 1.709 10.736 2.662 17.887 2.662 13.56 0 24.556 10.996 24.556 24.556v58.838c0 67.701-55.079 122.779-122.779 122.779h-188.007v137.228c0 13.56-10.996 24.556-24.556 24.556h-78.579c-13.562 0-24.556-10.996-24.556-24.556v-137.228h-188.007c-67.701 0-122.779-55.079-122.779-122.779v-58.838c0-13.56 10.996-24.556 24.556-24.556 7.151 0 12.87-0.953 17.887-2.662v-196.919h-73.447c-0.049 0-0.101 0-0.15 0h-81.656c-13.562 0-24.556-10.996-24.556-24.556 0-13.562 10.994-24.556 24.556-24.556h61.446l22.415-112.38c2.291-11.485 12.371-19.753 24.082-19.753h759.003c11.711 0 21.791 8.268 24.082 19.753l22.415 112.38h61.446c13.56 0 24.556 10.994 24.556 24.556 0 13.557-10.996 24.553-24.556 24.553zM497.266 645.825h29.467v-112.672h-29.467v112.672zM186.48 410.373c0 40.62 33.047 73.668 73.668 73.668h503.703c40.62 0 73.668-33.047 73.668-73.668v-36.917c-22.96-5.26-37.413-17.427-49.608-27.689-13.442-11.31-22.321-18.785-42.538-18.785s-29.099 7.475-42.538 18.785c-16.052 13.511-36.031 30.327-74.164 30.327-38.13 0-58.104-16.816-74.154-30.327-13.442-11.31-22.319-18.785-42.531-18.785-20.214 0-29.091 7.475-42.531 18.785-16.050 13.511-36.026 30.327-74.159 30.327-38.13 0-58.104-16.816-74.154-30.327-13.439-11.31-22.319-18.785-42.528-18.785s-29.091 7.475-42.526 18.785c-12.192 10.262-26.648 22.429-49.6 27.687v36.92zM228.925 290.273c12.499-7.072 28.212-12.406 49.684-12.406 38.13 0 58.104 16.816 74.156 30.327 13.439 11.313 22.316 18.785 42.526 18.785 20.214 0 29.094-7.475 42.533-18.785 16.050-13.511 36.026-30.327 74.156-30.327s58.107 16.816 74.159 30.327c13.439 11.315 22.316 18.785 42.526 18.785 20.217 0 29.099-7.475 42.538-18.785 16.052-13.511 36.031-30.327 74.164-30.327 21.481 0 37.202 5.336 49.704 12.413v-162.882h-566.146v162.874zM871.361-4.734h-718.721l-16.558 83.021h751.837l-16.558-83.021zM512 719.492c49.969 0 90.621 40.655 90.621 90.621 0 42.153-54.968 110.899-71.814 130.966-4.666 5.559-11.551 8.766-18.807 8.766s-14.142-3.209-18.807-8.766c-16.845-20.067-71.814-88.814-71.814-130.966 0-49.969 40.652-90.621 90.621-90.621zM512.007 885.601c22.326-30.13 41.502-62.568 41.502-75.487 0-22.889-18.621-41.509-41.509-41.509s-41.509 18.621-41.509 41.509c0 12.887 19.186 45.335 41.517 75.487z" />
<glyph unicode="&#xe902;" glyph-name="black-envelope" d="M80.98 764.037l368.841-292.162c16.725-13.233 39.773-19.115 62.16-18.012 22.35-1.103 45.398 4.742 62.123 18.012l368.841 292.162c29.554 23.269 22.864 42.347-14.63 42.347h-832.595c-37.531 0-44.221-19.078-14.74-42.347zM969.596 686.953l-403.064-306.020c-15.071-11.322-34.811-16.836-54.477-16.578-19.703-0.257-39.443 5.293-54.514 16.578l-403.138 306.020c-29.922 22.68-54.404 10.513-54.404-27.018v-502.093c0-37.531 30.731-68.262 68.262-68.262h887.476c37.531 0 68.262 30.731 68.262 68.262v502.093c0 37.531-24.482 49.698-54.404 27.018z" />
<glyph unicode="&#xe903;" glyph-name="calendar" d="M472 500h80v-80h-80v80zM904 880h-48v80h-80v-80h-528v80h-80v-80h-48c-66.168 0-120-53.832-120-120v-704c0-66.168 53.832-120 120-120h411.524c-27.656 22.828-51.744 49.822-71.326 80h-340.198c-22.056 0-40 17.944-40 40v528h864v-84.198c30.176-19.582 57.172-43.672 80-71.326v331.524c0 66.168-53.832 120-120 120zM944 664h-864v96c0 22.056 17.944 40 40 40h48v-80h80v80h528v-80h80v80h48c22.056 0 40-17.944 40-40v-96zM754 476c-148.878 0-270-121.122-270-270s121.122-270 270-270 270 121.122 270 270-121.122 270-270 270zM754 16c-104.766 0-190 85.234-190 190s85.234 190 190 190 190-85.234 190-190-85.234-190-190-190zM792 340h-80v-174h148v80h-68zM312 340h80v-80h-80v80zM152 340h80v-80h-80v80zM152 500h80v-80h-80v80zM152 180h80v-80h-80v80zM312 500h80v-80h-80v80zM312 180h80v-80h-80v80z" />
<glyph unicode="&#xe904;" glyph-name="calendar2" d="M884.818 856v104h-179.322v-104h-386.994v104h-179.32v-104h-139.182v-920h1024v920h-139.182zM765.496 900h59.322v-124h-59.322v124zM199.182 900h59.32v-124h-59.32v124zM964-4h-904v596h904v-596zM964 652h-904v144h79.182v-80h179.32v80h386.994v-80h179.322v80h79.182v-144zM462.44 514h99.128v-60h-99.128v60zM631.32 514h99.128v-60h-99.128v60zM800.2 514h99.128v-60h-99.128v60zM124.66 384h99.128v-60h-99.128v60zM293.56 384h99.128v-60h-99.128v60zM462.44 384h99.128v-60h-99.128v60zM631.32 384h99.128v-60h-99.128v60zM800.2 384h99.128v-60h-99.128v60zM124.66 254h99.128v-60h-99.128v60zM293.56 254h99.128v-60h-99.128v60zM462.44 254h99.128v-60h-99.128v60zM631.32 254h99.128v-60h-99.128v60zM800.2 254h99.128v-60h-99.128v60zM124.66 124h99.128v-60h-99.128v60zM293.56 124h99.128v-60h-99.128v60zM462.44 124h99.128v-60h-99.128v60zM631.32 124h99.128v-60h-99.128v60z" />
<glyph unicode="&#xe905;" glyph-name="cart" d="M416.020 159.986c-52.93 0-96.005-43.074-96.005-96.005s43.074-96.005 96.005-96.005 96.005 43.074 96.005 96.005-43.074 96.005-96.005 96.005zM416.020 31.98c-17.665 0-32.002 14.337-32.002 32.002s14.337 32.002 32.002 32.002c17.665 0 32.002-14.337 32.002-32.002s-14.337-32.002-32.002-32.002zM800.038 159.986c-52.93 0-96.005-43.074-96.005-96.005s43.074-96.005 96.005-96.005 96.005 43.074 96.005 96.005-43.074 96.005-96.005 96.005zM800.038 31.98c-17.665 0-32.002 14.337-32.002 32.002s14.337 32.002 32.002 32.002c17.665 0 32.002-14.337 32.002-32.002s-14.337-32.002-32.002-32.002zM1016.56 788.496c-6.016 7.296-15.041 11.521-24.513 11.521h-752.163l-27.841 104.261c-3.712 14.017-16.385 23.745-30.913 23.745h-149.127c-17.665 0-32.002-14.337-32.002-32.002s14.337-32.002 32.002-32.002h124.55l164.552-616.285c3.712-14.017 16.385-23.745 30.913-23.745h512.024c17.665 0 32.002 14.337 32.002 32.002s-14.337 32.002-32.002 32.002h-487.447l-18.753 70.275 571.611 25.729c14.913 0.704 27.393 11.585 30.017 26.241l64.003 352.017c1.728 9.344-0.832 18.945-6.912 26.241zM901.162 446.784l-560.282-25.217-83.908 314.447h696.737l-52.546-289.23zM800.038 672.011c-17.665 0-32.002-14.337-32.002-32.002v-128.006c0-17.665 14.337-32.002 32.002-32.002s32.002 14.337 32.002 32.002v128.006c0 17.665-14.337 32.002-32.002 32.002zM608.029 672.011c-17.665 0-32.002-14.337-32.002-32.002v-128.006c0-17.665 14.337-32.002 32.002-32.002s32.002 14.337 32.002 32.002v128.006c0 17.665-14.337 32.002-32.002 32.002zM416.020 672.011c-17.665 0-32.002-14.337-32.002-32.002v-128.006c0-17.665 14.337-32.002 32.002-32.002s32.002 14.337 32.002 32.002v128.006c0 17.665-14.337 32.002-32.002 32.002z" />
<glyph unicode="&#xe906;" glyph-name="check-mark" d="M463.534 101.095c-46.427-46.427-121.76-46.427-168.165 0l-260.549 260.549c-46.427 46.405-46.427 121.737 0 168.142 46.405 46.427 121.737 46.427 168.165 0l155.236-155.213c11.719-11.696 30.742-11.696 42.484 0l420.333 420.333c46.405 46.427 121.737 46.427 168.165 0 22.295-22.295 34.82-52.544 34.82-84.071s-12.526-61.776-34.82-84.071l-525.668-525.668z" />
<glyph unicode="&#xe907;" glyph-name="clock" d="M676.378 462.754h-149.428v149.434c0 24.768-20.080 44.846-44.846 44.846-24.768 0-44.846-20.080-44.846-44.846v-194.28c0-24.768 20.080-44.846 44.846-44.846h194.274c24.768 0 44.846 20.080 44.846 44.846 0 24.77-20.076 44.846-44.846 44.846zM512 960c-282.318 0-511.998-229.682-511.998-512.002 0-282.318 229.68-511.998 511.998-511.998s511.996 229.68 511.996 511.996c0 282.322-229.678 512.004-511.996 512.004zM512 25.692c-232.86 0-422.304 189.444-422.304 422.304 0 232.864 189.444 422.312 422.304 422.312s422.304-189.446 422.304-422.31c0-232.862-189.444-422.306-422.304-422.306z" />
<glyph unicode="&#xe908;" glyph-name="clock2" d="M874.038 810.040c-96.704 96.702-225.278 149.96-362.038 149.96s-265.334-53.258-362.038-149.96c-96.704-96.706-149.962-225.28-149.962-362.040s53.258-265.334 149.962-362.040c96.704-96.702 225.278-149.96 362.038-149.96s265.334 53.258 362.038 149.96c96.704 96.706 149.962 225.28 149.962 362.040s-53.258 265.334-149.962 362.040zM512-4c-249.234 0-452 202.766-452 452s202.766 452 452 452 452-202.766 452-452-202.766-452-452-452zM704.8 478h-162.8v162.8c0 16.568-13.432 30-30 30s-30-13.432-30-30v-192.8c0-16.568 13.432-30 30-30h192.8c16.568 0 30 13.432 30 30s-13.43 30-30 30z" />
<glyph unicode="&#xe909;" glyph-name="dental-chair" d="M87.219 752.291l28.015 6.080c32.214 6.987 52.754 38.865 45.784 71.095l-14.746 68.021c-5.946 27.309-30.551 47.111-58.498 47.111-4.232 0-8.482-0.453-12.63-1.36l-28.015-6.063c-15.569-3.376-28.905-12.63-37.555-26.1-8.666-13.453-11.589-29.442-8.196-44.995l14.746-68.021c5.929-27.309 30.5-47.128 58.465-47.128 4.232 0 8.482 0.453 12.63 1.36zM48.959 805.163l-14.746 68.038c-1.478 6.785-0.202 13.789 3.611 19.701s9.641 9.976 16.426 11.438l28.015 6.080c1.814 0.386 3.678 0.588 5.509 0.588 12.261 0 23.060-8.683 25.647-20.642l14.746-68.005c3.057-14.125-5.946-28.099-20.054-31.172l-28.015-6.080c-13.957-3.023-28.166 6.298-31.139 20.054zM1006.499 234.169l-264.293 263.755c-19.835 19.785-57.289 35.27-85.287 35.27l-57.591-0.017v57.793c32.969 0 59.808 24.118 59.808 53.745s-26.839 53.745-59.808 53.745h-168.542c-32.969 0-59.792-24.118-59.792-53.745s26.822-53.745 59.792-53.745v-57.843h-9.708c-19.214 0-47.934 11.908-61.522 25.479l-166.661 166.644c-22.506 22.523-62.042 22.489-84.548 0l-20.272-20.272c-11.253-11.253-17.45-26.268-17.45-42.274s6.198-31.021 17.467-42.274l200.47-200.201c19.835-19.802 57.289-35.304 85.287-35.304h124.42v-136.597h-69.197c-9.288 0-16.795-7.524-16.795-16.795v-69.197h-36.95c-32.969 0-59.792-26.822-59.792-59.792v-91.367c0-32.969 26.822-59.792 59.792-59.792h343.97c32.969 0 59.808 26.822 59.808 59.792v91.367c0 32.969-26.839 59.792-59.808 59.792h-36.933v69.197c0 9.271-7.508 16.795-16.795 16.795h-69.197v136.597h13.722c19.197 0 47.934-11.908 61.522-25.479l230.114-230.114c11.253-11.253 26.251-17.467 42.291-17.467 16.006 0 31.021 6.198 42.274 17.467l20.272 20.272c11.27 11.27 17.45 26.268 17.45 42.274-0.017 16.023-6.231 31.038-17.518 42.291zM404.585 644.716c0 10.917 11.992 20.155 26.201 20.155h168.542c14.209 0 26.218-9.237 26.218-20.155s-12.009-20.155-26.218-20.155h-168.542c-14.209 0-26.201 9.237-26.201 20.155zM464.377 590.971h101.36v-57.81l-101.36-0.034v57.843zM745.498 102.56v-91.367c0-14.444-11.757-26.201-26.218-26.201h-343.97c-14.444 0-26.201 11.757-26.201 26.201v91.367c0 14.444 11.74 26.201 26.201 26.201h343.97c14.461 0 26.218-11.757 26.218-26.201zM648.757 162.352h-202.905v52.402h202.905v-52.402zM562.764 248.344h-30.92v136.597h30.92v-136.597zM610.094 418.532h-236.244c-19.197 0-47.951 11.908-61.538 25.479l-200.47 200.201c-4.921 4.904-7.625 11.471-7.625 18.509 0 7.020 2.704 13.604 7.608 18.525l20.272 20.272c4.921 4.904 11.505 7.625 18.542 7.625 7.020 0 13.604-2.704 18.525-7.625l166.661-166.644c19.802-19.802 57.256-35.321 85.27-35.321h9.708v-37.773c0-9.271 7.508-16.795 16.795-16.795s16.795 7.524 16.795 16.795v37.79l101.36 0.034v-37.806c0-9.271 7.508-16.795 16.795-16.795s16.795 7.524 16.795 16.795v37.823l57.591 0.017c19.214 0 47.968-11.891 61.572-25.462l217.182-216.728-55.022-59.473-185.304 185.253c-19.819 19.785-57.272 35.304-85.27 35.304zM982.801 173.37l-20.272-20.272c-9.842-9.842-27.209-9.809-37.051 0l-21.061 21.061 55.039 59.489 23.329-23.278c4.921-4.904 7.625-11.471 7.625-18.509 0-7.004-2.704-13.571-7.608-18.492z" />
<glyph unicode="&#xe90a;" glyph-name="email2" d="M934 838h-844c-49.564 0-90-40.392-90-90v-600c0-49.44 40.256-90 90-90h844c49.44 0 90 40.256 90 90v600c0 49.44-40.256 90-90 90zM921.572 778l-407.664-407.666-411.19 407.666h818.854zM60 160.424v575.438l288.958-286.48-288.958-288.958zM102.426 118l289.14 289.14 101.314-100.444c11.728-11.628 30.654-11.59 42.334 0.092l98.786 98.786 287.574-287.574h-819.148zM964 160.426l-287.574 287.574 287.574 287.576v-575.15z" />
<glyph unicode="&#xe90b;" glyph-name="emergency-call" d="M850.775 755.269h-54.972v54.975c0 19.297-15.646 34.947-34.947 34.947s-34.947-15.646-34.947-34.947v-54.975h-54.972c-19.297 0-34.947-15.646-34.947-34.947s15.646-34.947 34.947-34.947h54.972v-54.972c0-19.297 15.646-34.947 34.947-34.947s34.947 15.646 34.947 34.947v54.972h54.972c19.297 0 34.947 15.646 34.947 34.947s-15.65 34.947-34.947 34.947zM300.984 434.654l85.671 85.223c13.646 13.646 13.646 35.774 0 49.424l-205.707 205.707c-13.65 13.643-35.771 13.643-49.424 0l-82.282-82.285c-53.807-53.803-63.895-142.067-28.407-248.529 32.765-98.294 101.3-202.917 192.974-294.591 136.585-136.582 292.178-213.392 410.517-213.392 53.579 0 99.525 15.75 132.603 48.824l82.285 82.285c13.646 13.646 13.646 35.774 0 49.424l-205.707 205.707c-13.65 13.643-35.771 13.643-49.424 0l-85.226-85.675c-17.984-9.044-75.914 6.537-133.63 64.253-57.713 57.713-73.28 115.646-64.243 133.623zM608.797 248.313l156.286-156.286-32.861-32.861-156.286 156.286 32.861 32.861zM156.238 700.873l156.286-156.286-32.861-32.861-156.286 156.286 32.861 32.861zM530.504 22.933c-88.202 29.403-183.124 91.939-267.274 176.094-84.154 84.151-146.687 179.072-176.090 267.274-19.852 59.551-22.297 110.889-7.847 146.949l155.707-155.707c-19.818-54.044 10.495-135.62 80.806-205.938 56.144-56.141 119.48-86.816 170.239-86.816 12.826 0 24.841 1.965 35.74 5.965l155.665-155.669c-36.054-14.446-87.395-12.005-146.946 7.847zM919.355 959.793h-329.287c-57.703 0-104.645-46.942-104.645-104.645v-277.207c0-57.703 46.942-104.645 104.645-104.645h51.583v-69.208c0-13.24 7.478-25.335 19.318-31.258 4.944-2.476 10.295-3.689 15.622-3.689 7.427 0 14.805 2.365 20.97 6.989l129.552 97.163h92.239c57.703 0 104.645 46.942 104.645 104.645v277.211c0.003 57.703-46.939 104.645-104.641 104.645zM954.106 577.941c0-19.163-15.588-34.75-34.75-34.75h-103.886c-7.561 0-14.919-2.455-20.966-6.989l-82.958-62.216v34.261c0 19.297-15.646 34.947-34.947 34.947h-86.53c-19.163 0-34.75 15.588-34.75 34.75v277.204c0 19.163 15.588 34.75 34.75 34.75h329.287c19.163 0 34.75-15.588 34.75-34.75v-277.207z" />
<glyph unicode="&#xe90c;" glyph-name="error" d="M874.21 810.21c-199.713 199.713-524.688 199.733-724.421 0s-199.713-524.688 0-724.421 524.688-199.733 724.421 0c199.713 199.733 199.713 524.707 0 724.421zM713.998 246.002c-15.387-15.387-40.329-15.387-55.716 0l-146.283 146.283-153.237-153.237c-15.387-15.387-40.329-15.387-55.716 0s-15.387 40.329 0 55.716l153.237 153.237-146.283 146.283c-15.387 15.387-15.387 40.348 0 55.716 15.387 15.387 40.329 15.387 55.716 0l146.283-146.283 139.309 139.309c15.387 15.387 40.329 15.387 55.716 0s15.387-40.329 0-55.716l-139.309-139.309 146.283-146.283c15.387-15.387 15.387-40.329 0-55.716z" />
<glyph unicode="&#xe90d;" glyph-name="facebook-logo" d="M767.965 959.787l-132.79 0.213c-149.185 0-245.595-98.913-245.595-252.008v-116.192h-133.514c-11.537 0-20.88-9.353-20.88-20.891v-168.35c0-11.537 9.353-20.88 20.88-20.88h133.514v-424.8c0-11.537 9.343-20.88 20.88-20.88h174.198c11.537 0 20.88 9.353 20.88 20.88v424.8h156.109c11.537 0 20.88 9.343 20.88 20.88l0.064 168.35c0 5.54-2.205 10.845-6.115 14.765s-9.236 6.125-14.776 6.125h-156.163v98.498c0 47.342 11.282 71.375 72.952 71.375l89.453 0.032c11.527 0 20.869 9.353 20.869 20.88v156.322c0 11.516-9.332 20.859-20.848 20.88z" />
<glyph unicode="&#xe90e;" glyph-name="facebook-logo-circle" d="M512 960c-282.773 0-512-229.227-512-512 0-282.784 229.227-512 512-512s512 229.216 512 512c0 282.773-229.227 512-512 512zM633.269 606.187h-76.981c-9.109 0-19.253-11.957-19.253-27.979v-55.584h96.224v-79.232h-96.224v-237.931h-90.88v237.931h-82.379v79.232h82.379v46.635c0 66.869 46.421 121.259 110.123 121.259h76.981l0.011-84.331z" />
<glyph unicode="&#xe90f;" glyph-name="star" d="M1011.369 532.516c11.245 9.876 15.457 25.494 10.708 39.671-4.749 14.182-17.545 24.116-32.46 25.228l-297.324 22.193c-13.81 1.049-25.868 9.634-31.315 22.327l-118.084 273.786c-5.932 13.701-19.503 22.559-34.454 22.394-14.917-0.138-28.32-9.199-33.984-23.036l-112.986-275.935c-5.219-12.802-17.148-21.625-30.918-22.9l-296.887-27.684c-14.876-1.38-27.477-11.552-31.959-25.799-4.477-14.249 0.036-29.812 11.414-39.471l227.504-192.746c10.547-8.963 15.256-23.002 12.23-36.478l-65.405-290.915c-3.271-14.585 2.487-29.705 14.679-38.394 12.194-8.655 28.355-9.197 41.088-1.311l253.568 156.844c11.755 7.267 26.576 7.41 38.495 0.332l256.434-152.095c12.834-7.612 29.028-6.806 41.017 2.086 11.993 8.892 17.518 24.152 13.943 38.66l-70.729 289.644c-3.3 13.44 1.143 27.586 11.519 36.705l223.905 196.891z" />
<glyph unicode="&#xe910;" glyph-name="google-plus-circle" d="M463.829 592.8c-12.896 45.312-33.685 58.72-66.037 58.72-3.499 0-6.997-0.48-10.379-1.44-13.995-3.936-25.12-15.648-31.339-33.003-6.315-17.632-6.752-35.979-1.248-56.96 9.835-37.344 36.395-64.459 63.189-64.459 3.52 0 6.997 0.48 10.357 1.429 29.269 8.245 47.605 52.949 35.456 95.712zM512 960c-282.773 0-512-229.227-512-512 0-282.784 229.227-512 512-512 282.795 0 512 229.216 512 512 0 282.773-229.205 512-512 512zM482.496 228.171c-32.149-15.627-66.795-17.312-80.192-17.312-2.539 0-4.021 0.064-4.245 0.064 0 0-0.96-0.021-2.603-0.021-20.875 0-124.939 4.8-124.939 99.584 0 93.131 113.312 100.395 148.043 100.395l0.917-0.011c-20.064 26.763-15.893 53.803-15.893 53.803-1.771-0.128-4.331-0.245-7.499-0.245-13.088 0-38.293 2.091-59.979 16.085-26.517 17.067-39.957 46.123-39.957 86.379 0 113.621 124.085 118.229 125.312 118.251h123.936v-2.688c0-13.877-24.875-16.512-41.877-18.837-5.728-0.789-17.291-2.005-20.565-3.691 31.371-16.725 36.459-43.083 36.459-82.357 0-44.672-17.504-68.309-36.064-84.917-11.456-10.261-20.523-18.368-20.523-29.141 0-10.581 12.416-21.483 26.773-34.080 23.541-20.683 55.787-48.992 55.787-96.555 0.011-49.227-21.163-84.448-62.891-104.704zM753.483 448.48h-80.832v-80.843h-51.211v80.843h-80.832v51.2h80.832v80.843h51.211v-80.843h80.832v-51.2zM417.205 386.581c-2.773 0-5.557-0.107-8.352-0.277-23.712-1.749-45.525-10.613-61.397-25.003-15.669-14.197-23.669-32.032-22.517-50.219 2.379-37.856 43.083-60.107 92.523-56.501 48.683 3.541 81.109 31.509 78.731 69.419-2.251 35.691-33.237 62.581-78.987 62.581z" />
<glyph unicode="&#xe911;" glyph-name="google-plus1" d="M359.274 380.414h159.984c-28.082-79.396-104.139-136.32-193.182-135.663-108.041 0.798-197.376 87.228-201.571 195.191-4.496 115.728 88.35 211.311 203.097 211.311 52.466 0 100.345-19.991 136.441-52.748 8.55-7.761 21.564-7.81 29.973 0.105l58.761 55.304c9.189 8.65 9.222 23.258 0.060 31.937-57.244 54.232-134.034 88.035-218.714 89.688-180.614 3.526-332.856-144.559-334.114-325.205-1.269-182.002 145.886-329.938 327.593-329.938 174.744 0 317.495 136.823 327.057 309.176 0.255 2.161 0.422 75.19 0.422 75.19h-295.808c-12.125 0-21.953-9.828-21.953-21.953v-80.444c0-12.125 9.83-21.953 21.953-21.953zM926.164 497.459v78.598c0 10.626-8.612 19.238-19.238 19.238h-66.153c-10.626 0-19.238-8.612-19.238-19.238v-78.598h-78.598c-10.626 0-19.238-8.612-19.238-19.238v-66.153c0-10.626 8.612-19.238 19.238-19.238h78.598v-78.598c0-10.626 8.612-19.238 19.238-19.238h66.153c10.626 0 19.238 8.612 19.238 19.238v78.598h78.598c10.626 0 19.238 8.612 19.238 19.238v66.153c0 10.626-8.612 19.238-19.238 19.238h-78.598z" />
<glyph unicode="&#xe912;" glyph-name="health-care" d="M1006.933 618.667h-324.267v324.267c0 10.24-6.827 17.067-17.067 17.067h-307.2c-10.24 0-17.067-6.827-17.067-17.067v-324.267h-324.267c-10.24 0-17.067-6.827-17.067-17.067v-307.2c0-10.24 6.827-17.067 17.067-17.067h324.267v-324.267c0-10.24 6.827-17.067 17.067-17.067h187.733v34.133h-170.667v324.267c0 10.24-6.827 17.067-17.067 17.067h-324.267v273.067h324.267c10.24 0 17.067 6.827 17.067 17.067v324.267h273.067v-324.267c0-10.24 6.827-17.067 17.067-17.067h324.267v-290.133h34.133v307.2c0 10.24-6.827 17.067-17.067 17.067zM904.533 226.133h-170.667c-66.56 0-119.467-52.907-119.467-119.467v-170.667h34.133v170.667c0 47.787 37.547 85.333 85.333 85.333h68.267v-119.467h34.133v119.467h68.267c47.787 0 85.333-37.547 85.333-85.333v-170.667h34.133v170.667c0 66.56-52.907 119.467-119.467 119.467zM802.133 243.2h34.133c47.787 0 85.333 37.547 85.333 85.333v51.2c0 47.787-37.547 85.333-85.333 85.333h-34.133c-47.787 0-85.333-37.547-85.333-85.333v-51.2c0-47.787 37.547-85.333 85.333-85.333zM750.933 379.733c0 29.013 22.187 51.2 51.2 51.2h34.133c29.013 0 51.2-22.187 51.2-51.2v-51.2c0-29.013-22.187-51.2-51.2-51.2h-34.133c-29.013 0-51.2 22.187-51.2 51.2v51.2zM699.733 55.467h34.133v-119.467h-34.133v119.467zM904.533 55.467h34.133v-119.467h-34.133v119.467zM409.6 891.733h34.133v-34.133h-34.133v34.133zM68.267 550.4h34.133v-34.133h-34.133v34.133zM921.6 550.4h34.133v-34.133h-34.133v34.133zM68.267 379.733h34.133v-34.133h-34.133v34.133zM409.6 38.4h34.133v-34.133h-34.133v34.133zM580.267 891.733h34.133v-34.133h-34.133v34.133zM716.8 686.933h34.133v-34.133h-34.133v34.133zM785.067 686.933h34.133v-34.133h-34.133v34.133zM853.333 686.933h34.133v-34.133h-34.133v34.133zM273.067 686.933h34.133v-34.133h-34.133v34.133zM204.8 686.933h34.133v-34.133h-34.133v34.133zM136.533 686.933h34.133v-34.133h-34.133v34.133zM273.067 243.2h34.133v-34.133h-34.133v34.133zM204.8 243.2h34.133v-34.133h-34.133v34.133zM273.067 174.933h34.133v-34.133h-34.133v34.133zM273.067 106.667h34.133v-34.133h-34.133v34.133zM204.8 174.933h34.133v-34.133h-34.133v34.133zM136.533 243.2h34.133v-34.133h-34.133v34.133zM273.067 755.2h34.133v-34.133h-34.133v34.133zM273.067 823.467h34.133v-34.133h-34.133v34.133zM204.8 755.2h34.133v-34.133h-34.133v34.133zM785.067 755.2h34.133v-34.133h-34.133v34.133zM716.8 755.2h34.133v-34.133h-34.133v34.133zM716.8 823.467h34.133v-34.133h-34.133v34.133z" />
<glyph unicode="&#xe913;" glyph-name="clock3" d="M512.032 960c-282.783 0-512.032-229.314-512.032-512.097 0-282.654 229.249-511.903 512.032-511.903 282.751 0 511.936 229.249 511.936 511.903 0 282.783-229.185 512.097-511.936 512.097zM512.032 91.508c-196.601 0-356.589 159.891-356.589 356.428 0 196.73 159.988 356.718 356.589 356.718 196.633 0 356.492-160.020 356.492-356.718 0-196.536-159.891-356.428-356.492-356.428zM556.058 476.169l0.032 197.664c0 24.301-19.692 43.929-44.058 43.929-24.43 0-44.155-19.628-44.155-43.929v-285.845h285.877c24.237 0 44.026 19.692 44.026 44.058 0 24.43-19.789 44.122-44.026 44.122 0.032 0-197.697 0-197.697 0z" />
<glyph unicode="&#xe914;" glyph-name="icon-implant" d="M257.174 481.050c-18.782 59.237-38.648 119.196-55.986 179.516-5.057 17.699-6.14 37.926-3.612 56.347 7.585 53.819 25.645 102.581 77.297 131.115 29.618 16.615 62.487 23.117 95.357 17.338 35.759-6.502 70.434-17.338 105.47-27.090 33.592-9.752 65.738-1.084 98.607 6.14 36.481 8.308 73.323 19.866 110.527 20.95 61.043 1.806 112.694-37.926 130.393-100.052 6.863-23.839 10.475-48.762 11.92-73.323 2.528-48.040-16.976-91.383-33.592-135.089-9.752-25.284-20.588-50.207-31.063-75.852-166.152 0-333.026 0-505.318 0zM283.903 522.949c154.954 0 303.046 0 451.138 0 6.502 15.532 13.003 30.702 19.144 46.234 22.033 54.902 41.899 109.443 26.368 170.847-12.642 50.929-49.123 86.327-99.691 84.159-27.090-1.084-53.819-10.475-80.909-15.17-34.314-5.779-68.628-16.254-102.581-14.809-35.036 1.445-69.711 14.448-104.748 23.117-29.618 7.585-59.237 12.642-88.855-0.722-44.066-19.505-75.491-76.213-64.655-130.754 11.197-55.625 29.98-109.443 44.789-162.901zM735.041 356.436c0 10.836 0 21.311 0 33.23-19.866 0-39.010 0-59.237 0 0 16.254 0 31.063 0 46.234-114.5 0-227.556 0-342.778 0 0-15.893 0-31.063 0-47.678-17.699 0-33.953 0-50.568 0 0-11.197 0-20.588 0-31.786 151.704 0 301.963 0 452.583 0zM683.389 246.993c0 10.836 0 20.95 0 32.147-15.17 0-29.257 0-44.428 0 0 16.254 0 31.424 0 46.956-88.855 0-176.626 0-265.843 0 0-15.893 0-31.424 0-47.678-14.087 0-26.368 0-39.371 0 0-10.836 0-20.227 0-31.063 117.39-0.361 233.696-0.361 349.641-0.361zM404.904 214.485c0-15.893 0-31.063 0-47.317-10.475 0-19.505 0-28.896 0 0-11.197 0-20.95 0-31.063 89.577 0 178.432 0 267.649 0 0 10.475 0 20.588 0 31.786-11.558 0-22.756 0-34.675 0 0 16.254 0 31.063 0 46.956-68.989-0.361-135.811-0.361-204.078-0.361zM432.356 104.319c0-28.896 12.642-50.207 35.398-64.655 28.174-18.060 57.431-17.338 85.604 1.445 22.033 14.809 32.508 36.12 33.953 63.21-52.735 0-103.664 0-154.954 0z" />
<glyph unicode="&#xe915;" glyph-name="icon-orthodontics" d="M450.416 234.712c0-1.084 0-1.806 0-2.89 2.89-44.428 8.669-89.216-6.863-132.56-12.281-35.036-50.568-47.678-80.186-25.645-10.114 7.585-20.95 18.060-25.284 29.618-13.364 35.036-26.006 70.795-34.675 107.276-13.726 57.431-15.893 116.667-13.364 175.904 1.806 41.177-5.418 79.464-21.311 117.39-15.532 36.842-28.174 75.129-39.371 113.778-9.391 32.147-7.946 65.377 1.084 97.885 22.033 80.186 88.133 119.196 168.68 99.691 14.448-3.612 29.257-6.502 43.344-11.558 48.401-17.338 96.079-14.809 144.841 0.722 32.508 10.475 65.738 19.866 100.775 14.448 54.18-8.669 88.494-40.093 105.109-91.745 16.976-51.29 13.364-101.858-5.779-151.704-11.197-29.257-22.394-58.153-34.314-87.049-10.836-26.006-15.532-52.735-14.448-80.909 2.528-83.076-1.445-165.79-24.562-246.699-5.057-17.338-11.197-34.314-18.782-50.568-5.418-11.197-12.642-22.394-21.672-30.702-32.869-30.702-74.768-19.505-89.577 23.117-13.003 38.648-11.197 78.019-9.030 117.751 1.806 34.675 2.167 69.35 2.167 104.387 0 9.752-3.612 19.866-7.224 29.618-9.391 26.368-27.812 39.732-54.18 40.093-27.451 0.361-46.234-10.475-55.986-36.842-5.779-15.532-8.669-32.508-9.752-48.762-0.722-24.2 0.361-49.123 0.361-74.046zM620.902 114.071c3.973-11.197 18.060-15.17 27.090-7.224 15.893 13.726 21.311 33.953 27.451 53.096 24.923 79.103 28.535 160.734 26.006 242.726-1.084 36.842 6.14 71.517 19.866 105.47 12.642 30.341 24.562 61.043 35.759 92.467 14.087 39.732 14.087 80.186-0.361 119.918-14.809 41.177-45.872 64.293-89.216 61.043-27.090-2.167-54.541-8.669-80.909-16.615-48.040-13.726-95.357-15.893-143.396 0-18.060 6.14-37.204 10.114-55.625 14.448-52.374 12.281-96.44-11.197-115.584-61.043-10.836-28.535-13.726-58.153-5.779-86.688 11.558-41.538 26.006-82.353 41.899-122.447 14.087-35.759 22.033-71.517 21.311-110.527-1.084-41.899 0-84.159 3.612-126.059 4.334-50.207 13.364-100.052 35.759-146.286 3.612-7.585 8.308-14.809 14.448-20.227 10.836-9.752 21.672-6.863 26.006 7.224 3.612 11.197 6.863 23.478 6.863 35.036 0 42.26-0.722 84.159-2.528 126.42-1.445 35.759-0.722 70.795 15.532 104.025 18.782 37.926 49.484 53.819 90.661 52.735 40.454-1.084 70.073-19.866 83.437-57.069 8.669-24.2 13.726-51.29 14.448-76.935 1.084-39.010-3.612-78.019-5.057-117.029-1.084-22.756 0.722-44.789 8.308-66.461zM391.54 592.299c-40.816 0-80.547 0-120.279 0-5.057 0-9.391 1.445-10.114 6.502-0.361 3.251 1.084 7.585 3.251 10.114 1.445 1.806 5.779 1.806 8.669 1.806 36.481 0 72.962 0 109.443 0 2.89 0 5.418 0 9.030 0 0 16.976 0 33.23 0 49.484 0 20.588 15.532 36.12 36.481 36.12 58.875 0 118.112 0 176.988 0 20.95 0 36.12-15.532 36.481-36.12 0-15.532 0-30.702 0-46.234 0-0.722 0-1.084 0.361-3.251 3.612 0 7.585 0 11.197 0 35.759 0 71.156-0.361 106.915 0 7.224 0 11.558-2.528 12.642-9.391 0.722-5.779-4.696-9.752-13.003-9.752-38.648 0-76.935 0-115.584 0-0.722 0-1.084-0.361-2.89-0.722 0-13.726-0.722-28.174 0.361-41.899 1.445-21.311-14.809-39.371-39.010-39.371-53.457 0.361-106.554 0-160.011 0-7.585 0-15.532 0.361-23.117 1.445-16.254 2.528-27.812 16.976-27.812 33.23s0 31.786 0 48.040zM468.837 649.007c0 2.528-0.361 3.973-0.361 5.057-0.361 13.364-8.669 23.117-19.505 23.117-11.197 0-19.866-10.475-20.227-23.839 0-11.558 0.361-22.756 0-34.314-0.361-6.14 1.445-9.030 7.946-8.669 7.946 0.361 15.893-0.361 23.839 0.361 3.251 0.361 6.502 2.89 9.752 4.334-0.361 0.722-0.361 1.445-0.722 2.528 29.257 0 58.875 0 88.133-0.361 2.89 0 5.418-2.89 8.308-4.334-0.361-0.722-0.361-1.445-0.722-2.167 10.836 0 21.672-0.361 32.508 0.361 2.167 0 5.418 3.251 5.418 5.057 0.361 13.726 0.722 27.451 0 41.177-0.361 10.114-7.224 17.338-16.976 19.866-6.863 1.806-16.615-2.89-20.227-10.836-2.167-5.057-2.167-11.197-3.251-17.338-30.702 0-61.765 0-93.912 0zM470.281 585.436c0 0.722 0 1.084 0 1.806-1.806 1.806-3.612 4.696-5.779 4.696-10.114 0.361-20.588 0.361-30.702 0-1.445 0-4.334-2.89-4.334-4.696-0.361-12.642-0.722-25.645 0-38.287 0.722-10.114 7.946-17.338 16.615-18.421 9.391-1.084 17.338 2.528 20.588 11.197 1.445 3.612 1.806 7.946 2.528 12.281 31.424 0 62.849 0 94.995 0 0-2.89-0.361-5.057 0-7.224 1.084-7.585 8.308-15.532 15.17-16.254 10.114-1.084 20.588 2.89 21.672 10.836 2.167 16.615 2.528 33.592 3.612 50.568-14.809 0-26.729 0-39.010 0 0.361-0.722 0.361-1.445 0.722-2.167-2.89-1.445-5.418-4.334-8.308-4.334-29.257-0.361-58.514 0-87.771 0z" />
<glyph unicode="&#xe916;" glyph-name="icon-whitening" d="M450.416 234.712c0-1.084 0-1.806 0-2.89 2.89-44.428 8.669-89.216-6.863-132.56-12.281-35.036-50.568-47.678-80.186-25.645-10.114 7.585-20.95 18.060-25.284 29.618-13.364 35.036-26.006 70.795-34.675 107.276-13.726 57.431-15.893 116.667-13.364 175.904 1.806 41.177-5.418 79.464-21.311 117.39-15.532 36.842-28.174 75.129-39.371 113.778-9.391 32.147-7.946 65.377 1.084 97.885 22.033 80.186 88.133 119.196 168.68 99.691 14.448-3.612 29.257-6.502 43.344-11.558 48.401-17.338 96.079-14.809 144.841 0.722 32.508 10.475 65.738 19.866 100.775 14.448 54.18-8.669 88.494-40.093 105.109-91.745 16.976-51.29 13.364-101.858-5.779-151.704-11.197-29.257-22.394-58.153-34.314-87.049-10.836-26.006-15.532-52.735-14.448-80.909 2.528-83.076-1.445-165.79-24.562-246.699-5.057-17.338-11.197-34.314-18.782-50.568-5.418-11.197-12.642-22.394-21.672-30.702-32.869-30.702-74.768-19.505-89.577 23.117-13.003 38.648-11.197 78.019-9.030 117.751 1.806 34.675 2.167 69.35 2.167 104.387 0 9.752-3.612 19.866-7.224 29.618-9.391 26.368-27.812 39.732-54.18 40.093-27.451 0.361-46.234-10.475-55.986-36.842-5.779-15.532-8.669-32.508-9.752-48.762-0.722-24.2 0.361-49.123 0.361-74.046zM620.902 114.071c3.973-11.197 18.060-15.17 27.090-7.224 15.893 13.726 21.311 33.953 27.451 53.096 24.923 79.103 28.535 160.734 26.006 242.726-1.084 36.842 6.14 71.517 19.866 105.47 12.642 30.341 24.562 61.043 35.759 92.467 14.087 39.732 14.087 80.186-0.361 119.918-14.809 41.177-45.872 64.293-89.216 61.043-27.090-2.167-54.541-8.669-80.909-16.615-48.040-13.726-95.357-15.893-143.396 0-18.060 6.14-37.204 10.114-55.625 14.448-52.374 12.281-96.44-11.197-115.584-61.043-10.836-28.535-13.726-58.153-5.779-86.688 11.558-41.538 26.006-82.353 41.899-122.447 14.087-35.759 22.033-71.517 21.311-110.527-1.084-41.899 0-84.159 3.612-126.059 4.334-50.207 13.364-100.052 35.759-146.286 3.612-7.585 8.308-14.809 14.448-20.227 10.836-9.752 21.672-6.863 26.006 7.224 3.612 11.197 6.863 23.478 6.863 35.036 0 42.26-0.722 84.159-2.528 126.42-1.445 35.759-0.722 70.795 15.532 104.025 18.782 37.926 49.484 53.819 90.661 52.735 40.454-1.084 70.073-19.866 83.437-57.069 8.669-24.2 13.726-51.29 14.448-76.935 1.084-39.010-3.612-78.019-5.057-117.029-1.084-22.756 0.722-44.789 8.308-66.461zM669.302 667.067c-12.281 12.281-19.144 30.702-29.257 48.040-9.752-17.338-15.893-35.759-28.174-47.678-12.642-12.642-31.063-19.144-50.929-30.702 40.454-12.281 65.016-37.926 79.825-75.129 13.726 38.287 38.648 62.126 78.741 75.129-19.866 11.92-37.926 18.060-50.207 30.341zM452.222 534.868c-25.284 7.224-37.565 26.729-50.929 52.013-6.502-29.98-25.284-42.622-49.484-53.096 25.284-9.391 41.899-24.2 51.29-48.040 9.752 23.839 26.729 37.926 49.123 49.123z" />
<glyph unicode="&#xe917;" glyph-name="instagram" d="M131.482 959.959h761.098c72.308 0 131.42-59.133 131.42-131.441v-761.098c0-72.288-59.112-131.379-131.42-131.379h-761.098c-72.308 0-131.482 59.095-131.482 131.379v761.098c0 72.308 59.174 131.441 131.482 131.441zM745.97 846.237c-25.388 0-46.097-20.791-46.097-46.165v-110.298c0-25.385 20.709-46.128 46.097-46.128h115.722c25.347 0 46.1 20.743 46.1 46.128v110.298c0 25.375-20.753 46.165-46.1 46.165h-115.722zM908.233 526.957h-90.098c8.544-27.904 13.175-57.33 13.175-87.924 0-170.264-142.561-308.361-318.348-308.361-175.742 0-318.307 138.097-318.307 308.361 0 30.594 4.676 60.020 13.179 87.924h-94v-432.579c0-22.402 18.292-40.625 40.673-40.625h713.069c22.402 0 40.656 18.224 40.656 40.625v432.579zM512.966 649.462c-113.527 0-205.619-89.184-205.619-199.298 0-110.001 92.092-199.253 205.619-199.253 113.589 0 205.684 89.252 205.684 199.253 0 110.118-92.095 199.298-205.684 199.298z" />
<glyph unicode="&#xe918;" glyph-name="link-symbol" d="M967.392 539.080l-273.244-273.234c-75.472-75.483-197.751-75.483-273.229 0l-91.074 91.085 91.074 91.064 91.081-91.064c25.157-25.109 65.976-25.16 91.085 0l273.225 273.223c25.096 25.128 25.096 65.981 0 91.115l-91.074 91.074c-25.109 25.092-65.976 25.092-91.087 0l-97.546-97.563c-45.222 26.614-96.618 38.028-147.502 34.6l153.984 154.037c75.472 75.443 197.81 75.443 273.225 0l91.085-91.074c75.472-75.447 75.472-197.821-0.002-273.263zM427.339 181.175l-97.493-97.486c-25.157-25.16-65.976-25.098-91.074 0l-91.081 91.074c-25.157 25.106-25.157 65.928 0 91.085l273.229 273.234c25.102 25.092 65.987 25.092 91.081 0l91.085-91.085 91.064 91.085-91.064 91.074c-75.483 75.443-197.761 75.443-273.238 0l-273.236-273.225c-75.479-75.494-75.479-197.832 0-273.242l91.079-91.076c75.419-75.483 197.755-75.483 273.229 0l153.973 153.98c-50.88-3.392-102.142 8.037-147.555 34.583z" />
<glyph unicode="&#xe919;" glyph-name="medical-kit" d="M670.785 147.418h-0.266c-11.044 0-20-8.954-20-20s8.956-20 20-20h0.266c11.044 0 20 8.954 20 20s-8.956 20-20 20zM896.002 147.418h-159.746c-11.044 0-20-8.954-20-20s8.956-20 20-20h159.746c11.044 0 20 8.954 20 20s-8.956 20-20 20zM376.229 240.087c-7.782 7.838-20.518 7.81-28.354 0.030-7.838-7.784-7.882-20.446-0.1-28.284 3.908-3.938 9.048-5.908 14.192-5.908 5.096 0 10.192 1.934 14.092 5.808l0.138 0.138c7.838 7.784 7.814 20.378 0.032 28.216zM892.024 715.948h-133.94v36c0 11.046-8.956 20-20 20h-38v68.104c0 11.046-8.956 20-20 20h-336.165c-11.044 0-20-8.954-20-20v-68.104h-40.956c-11.044 0-20-8.954-20-20v-36h-130.984c-72.772 0-131.978-59.204-131.978-131.98v-416.043c0-72.774 59.206-131.978 131.978-131.978h760.043c72.774 0 131.978 59.206 131.978 131.978v416.043c0.002 72.776-59.204 131.98-131.976 131.98zM718.083 731.948v-16h-76v16h76zM660.083 820.052v-48.104h-38c-11.044 0-20-8.954-20-20v-36h-183.12v36c0 11.046-8.956 20-20 20h-35.044v48.104h296.165zM302.963 731.948h76v-16h-76v16zM40 583.967c0 50.72 41.262 91.982 91.978 91.982h760.043c50.716 0 91.978-41.262 91.978-91.98v-115.98h-259.039c-11.272 26.166-27.572 50.668-48.912 72.008-43.818 43.818-102.078 67.95-164.048 67.95-61.964 0-120.232-24.134-164.048-67.952-21.040-21.040-37.508-45.384-48.99-72.008h-258.963v115.98zM984.002 167.928c0-50.72-41.262-91.982-91.978-91.982h-760.045c-50.716 0-91.978 41.264-91.978 91.98v260.063h245.892c-1.492-6.546-2.73-13.18-3.666-19.906-6.77-48.64 2.27-99.118 25.448-142.136 5.242-9.724 17.376-13.36 27.094-8.12 9.724 5.24 13.36 17.37 8.122 27.094-39.88 74.014-26.168 167.276 33.35 226.792 36.264 36.264 84.478 56.236 135.764 56.236s99.5-19.972 135.764-56.234c74.862-74.862 74.862-196.67 0-271.531-59.518-59.518-152.782-73.232-226.792-33.346-9.73 5.24-21.856 1.604-27.094-8.12-5.24-9.724-1.606-21.854 8.118-27.094 33.706-18.162 71.982-27.642 110.376-27.642 10.608 0 21.234 0.724 31.764 2.19 50.298 7 95.914 29.726 131.916 65.728 58.526 58.526 79.168 140.798 61.96 216.090h245.984v-260.063zM571.569 500.901c-33.282 0-49.7-21.030-59.568-34.19-9.868 13.162-26.286 34.19-59.566 34.19-42.822 0-77.662-34.838-77.662-77.662 0-19.336 2.214-36.916 30.070-72.002 8.292-10.446 13.334-35.094 17.384-54.898 3.078-15.054 5.986-29.274 10.424-40.768 9.294-24.074 23.958-29.126 34.626-29.126 28.186 0 37.962 30.694 44.724 54.826 6.764-24.13 16.54-54.826 44.724-54.826 10.666 0 25.332 5.052 34.626 29.126 4.44 11.494 7.348 25.714 10.426 40.768 4.050 19.804 9.092 44.45 17.384 54.898 27.854 35.086 30.068 52.666 30.068 72.002 0 42.822-34.838 77.662-77.66 77.662zM587.833 376.109c-14.238-17.936-19.834-45.294-25.246-71.752-1.816-8.888-4.222-20.646-6.784-29.262-2.398 6.57-4.67 14.748-6.182 20.184-6.366 22.894-13.578 48.844-37.622 48.844s-31.256-25.95-37.62-48.842c-1.512-5.436-3.786-13.614-6.184-20.184-2.56 8.618-4.964 20.374-6.782 29.26-5.412 26.458-11.008 53.818-25.246 71.754-21.398 26.952-21.398 35.858-21.398 47.132 0.004 20.762 16.898 37.658 37.666 37.658 13.276 0 19.346-7.208 28.15-18.97 7.026-9.382 15.768-21.058 31.416-21.058 15.65 0 24.392 11.676 31.418 21.060 8.804 11.762 14.876 18.97 28.15 18.97 20.766 0 37.66-16.894 37.66-37.662 0-11.274 0-20.18-21.396-47.132z" />
<glyph unicode="&#xe91a;" glyph-name="menu" d="M38.642 699.17h946.717c21.33 0 38.642 17.311 38.642 38.642s-17.311 38.642-38.642 38.642h-946.717c-21.33 0-38.642-17.311-38.642-38.642s17.311-38.642 38.642-38.642zM38.642 409.358h946.717c21.33 0 38.642 17.311 38.642 38.642s-17.311 38.642-38.642 38.642h-946.717c-21.33 0-38.642-17.311-38.642-38.642s17.311-38.642 38.642-38.642zM38.642 119.547h946.717c21.33 0 38.642 17.311 38.642 38.642s-17.311 38.642-38.642 38.642h-946.717c-21.33 0-38.642-17.311-38.642-38.642s17.311-38.642 38.642-38.642z" />
<glyph unicode="&#xe91b;" glyph-name="paintbrush" d="M320.215 382.104c-8.418 1.185-17.022 1.744-25.771 1.573-42.039-0.819-107.084-17.95-178.247-94.9-56.489-61.079-58.796-125.627-60.829-182.572-1.945-54.435-3.48-97.428-48.639-128.845-4.438-3.091-6.83-8.359-6.226-13.734 0.377-3.38 1.901-6.456 4.225-8.781 1.373-1.373 3.023-2.484 4.885-3.238 84.045-34.042 227.817-17.37 344.878 99.691 53.165 53.168 84.897 109.45 91.756 162.748 1.789 13.905 1.821 27.471 0.268 40.554l-126.302 127.504zM297.353 284.11c-4.576-6.406-11.371-10.643-19.135-11.939-56.601-9.435-76.269-47.007-77.079-48.601-4.794-9.98-15.225-16.533-26.487-16.533-0.993 0-1.992 0.050-2.991 0.153-3.386 0.345-6.671 1.273-9.762 2.758-14.644 7.045-20.829 24.68-13.793 39.328 1.302 2.705 32.863 66.433 120.423 81.031 1.609 0.265 3.241 0.401 4.853 0.401 14.462 0 26.681-10.36 29.056-24.624 1.294-7.761-0.513-15.564-5.086-21.973zM1003.563 939.975c-25.385 25.382-66.077 26.814-93.182 3.277-17.037-14.795-417.876-362.917-471.94-416.978-27.035-27.035-61.719-73.364-91.709-116.177l126.302-127.501c42.861 29.996 89.414 64.833 116.831 92.251 54.694 54.7 402.215 454.935 416.986 471.946 23.528 27.108 22.093 67.801-3.288 93.182z" />
<glyph unicode="&#xe91c;" glyph-name="pencil-writing" d="M981.904 500.93c-56.127 56.127-147.451 56.127-203.568 0l-10.668-10.668 203.568-203.57 10.668 10.668c56.127 56.124 56.127 147.446 0 203.57zM772.248 261.47c-8.231-8.226-21.57-8.226-29.802 0-8.231 8.231-8.231 21.575 0 29.802l79.089 79.089-86.884 86.884-100.286-100.284c-4.068-4.068-6.672-9.378-7.39-15.088l-24.091-190.985c-1.004-7.95 1.727-15.915 7.39-21.585 5.668-5.665 13.635-8.399 21.59-7.392l190.985 24.091c5.711 0.72 11.021 3.322 15.088 7.392l100.286 100.286-86.884 86.884-79.091-79.094zM656.709 166.463c-2.541-0.317-5.092 0.555-6.905 2.369-1.818 1.813-2.693 4.362-2.371 6.905l7.707 61.117 62.677-62.674-61.107-7.717zM810.842 86.738v-39.291h-490.205v801.109h490.205v-278.891c23.541 11.427 49.305 18.015 76.076 19.214v285.035c0 28.011-22.704 50.718-50.718 50.718h-699.902c-28.009 0-50.718-22.706-50.718-50.718v-124.146h-37.399c-26.568 0-48.182-21.613-48.182-48.179s21.613-48.179 48.182-48.179h37.399v-157.229h-37.399c-26.568 0-48.182-21.613-48.182-48.179 0-26.568 21.613-48.179 48.182-48.179h37.399v-157.229h-37.399c-26.568 0-48.182-21.608-48.182-48.179 0-26.568 21.613-48.179 48.182-48.179h37.399v-124.146c0-28.011 22.709-50.718 50.718-50.718h699.902c28.014 0 50.718 22.706 50.718 50.718v88.403c-11.619-10.58-26.373-17.487-42.004-19.455l-34.072-4.298zM239.001 47.447h-77.344v98.788h12.045c26.568 0 48.179 21.611 48.179 48.179 0 26.571-21.611 48.179-48.179 48.179h-12.045v157.229h12.045c26.568 0 48.179 21.611 48.179 48.179 0 26.566-21.611 48.179-48.179 48.179h-12.045v157.229h12.045c26.568 0 48.179 21.613 48.179 48.179s-21.611 48.179-48.179 48.179h-12.045v98.788h77.344v-801.109z" />
<glyph unicode="&#xe91d;" glyph-name="placeholder" d="M512.001 960c-216.682 0-392.965-176.282-392.965-392.963 0-89.212 29.264-173.368 84.684-243.443l308.281-387.595 308.34 387.666c55.362 70.003 84.625 154.161 84.625 243.371 0 216.68-176.285 392.963-392.965 392.963zM769.484 363.999l-257.483-323.725-257.426 323.656c-46.205 58.425-70.631 128.658-70.631 203.108 0.002 180.889 147.166 328.053 328.057 328.053s328.055-147.164 328.055-328.053c0-74.45-24.423-144.684-70.572-203.038zM512.001 734.12c-89.478 0-162.275-72.797-162.275-162.275s72.797-162.275 162.275-162.275 162.275 72.797 162.275 162.275-72.797 162.275-162.275 162.275zM512.001 474.48c-53.687 0-97.365 43.678-97.365 97.365s43.678 97.365 97.365 97.365 97.365-43.678 97.365-97.365-43.678-97.365-97.365-97.365z" />
<glyph unicode="&#xe91e;" glyph-name="placeholder2" d="M524.919 959.787c-207.953 7.008-378.729-159.479-378.729-365.849 0-234.207 224.759-404.179 350.736-648.621 6.396-12.411 24.262-12.427 30.68-0.018 113.965 219.948 308.745 367.436 344.842 579.331 37.375 219.27-125.227 427.662-347.53 435.157zM512.248 402.194c-105.896 0-191.744 85.85-191.744 191.744s85.85 191.744 191.744 191.744c105.896 0 191.746-85.85 191.746-191.744s-85.85-191.744-191.746-191.744z" />
<glyph unicode="&#xe91f;" glyph-name="price-tag" d="M715.736 960h-407.472c-79.382 0-143.962-64.582-143.962-143.964v-841.896c0-12.728 6.92-24.462 18.060-30.622 11.14-6.156 24.756-5.782 35.542 0.992l135.14 84.882 140.358-88.072c5.652-3.544 12.126-5.318 18.6-5.318 6.48 0 12.96 1.776 18.61 5.326l140.206 88.066 135.292-84.896c10.78-6.768 24.396-7.14 35.532-0.982 11.138 6.16 18.056 17.892 18.056 30.62v841.9c0 79.382-64.58 143.964-143.962 143.964zM799.85 19.080l-110.442 69.302c-11.304 7.092-25.908 7.090-37.208-0.008l-140.206-88.064-140.356 88.072c-5.65 3.546-12.124 5.316-18.598 5.316-6.48 0-12.96-1.776-18.612-5.324l-110.276-69.266v796.928c0 46.382 37.734 84.114 84.114 84.114h407.468c46.38 0 84.114-37.732 84.114-84.114v-796.956zM669.152 302.026h-322.706c-16.526 0-29.924-13.398-29.924-29.924s13.398-29.924 29.924-29.924h322.706c16.526 0 29.924 13.398 29.924 29.924s-13.394 29.924-29.924 29.924zM669.152 205.19h-123.21c-16.526 0-29.924-13.398-29.924-29.924s13.398-29.924 29.924-29.924h123.212c16.526 0 29.924 13.398 29.924 29.924 0.002 16.526-13.396 29.924-29.926 29.924zM469.448 205.19h-43.412c-16.526 0-29.924-13.398-29.924-29.924s13.398-29.924 29.924-29.924h43.412c16.526 0 29.924 13.398 29.924 29.924s-13.398 29.924-29.924 29.924zM613.826 584.388c-7.626 12.398-17.058 21.544-28.28 27.438-11.224 5.886-23.406 11.030-36.536 15.448-13.126 4.416-25.424 7.88-36.87 10.402-11.458 2.522-21.068 6.098-28.848 10.728-7.778 4.618-11.668 10.504-11.668 17.656 0 7.15 3.89 13.664 11.668 19.548 7.778 5.886 19.012 8.832 33.708 8.832 13.39 0 27.764-2.704 43.112-8.104 15.336-5.408 24.734-8.104 28.198-8.104 8.64 0 15.884 4.862 21.718 14.586 5.836 9.726 8.754 18.254 8.754 25.608 0 11.668-10.486 21.606-31.442 29.82-13.26 5.188-27.692 8.73-43.28 10.642v54.21c0 16.526-13.398 29.924-29.924 29.924s-29.924-13.398-29.924-29.924v-54.888c-24.434-3.928-43.348-12.804-56.668-26.676-18.588-19.348-27.876-42.432-27.876-69.254 0-19.348 5.286-35.22 15.882-47.618 10.586-12.398 23.438-21.23 38.572-26.488 15.124-5.256 30.144-9.776 45.054-13.552 14.91-3.788 27.652-8.62 38.248-14.506 10.586-5.896 15.882-13.876 15.882-23.966 0-18.080-15.964-27.116-47.892-27.116-16.188 0-30.174 2.258-41.986 6.786s-21.322 8.954-28.534 13.288c-7.222 4.336-13.238 6.504-18.038 6.504-7.436 0-13.998-4.214-19.68-12.64-5.694-8.428-8.528-16.53-8.528-24.31-0.004-14.698 11.442-27.664 34.354-38.898 17.592-8.628 38.002-13.932 61.206-15.936v-54.19c0-16.526 13.398-29.924 29.924-29.924s29.924 13.398 29.924 29.924v56.762c19.91 3.99 36.504 11.402 49.764 22.26 20.958 17.158 31.44 40.71 31.44 70.642 0.002 17.654-3.818 32.686-11.434 45.086z" />
<glyph unicode="&#xe920;" glyph-name="reply-black" d="M0 510.070l349.105 349.105v-155.166h349.031c179.979 0 325.864-145.885 325.864-325.827v-341.321c0 180.017-145.885 325.752-325.864 325.752h-349.031v-201.686l-349.105 349.143z" />
<glyph unicode="&#xe921;" glyph-name="right-arrow" d="M689.55 797.181c-13.95 14.438-37.168 14.438-51.606 0-13.95-13.95-13.95-37.168 0-51.086l261.674-261.674h-863.49c-20.129-0.033-36.128-16.032-36.128-36.16s15.999-36.648 36.128-36.648h863.49l-261.674-261.187c-13.95-14.438-13.95-37.689 0-51.606 14.438-14.438 37.689-14.438 51.606 0l323.622 323.622c14.438 13.95 14.438 37.168 0 51.086l-323.622 323.654z" />
<glyph unicode="&#xe922;" glyph-name="left" d="M227.435 465.567l487.155 487.155c9.702 9.702 25.432 9.702 35.131 0l46.847-46.847c4.661-4.657 7.277-10.977 7.277-17.566s-2.617-12.908-7.277-17.566l-422.746-422.743 422.746-422.746c4.661-4.657 7.277-10.977 7.277-17.566s-2.617-12.908-7.277-17.566l-46.847-46.847c-4.849-4.849-11.209-7.277-17.566-7.277s-12.716 2.425-17.566 7.277l-487.155 487.155c-9.705 9.702-9.705 25.432 0 35.134z" />
<glyph unicode="&#xe923;" glyph-name="smartphone" d="M820.351 15.703v864.804c0 43.721-35.563 79.493-79.493 79.493h-457.714c-43.721 0-79.493-35.563-79.493-79.493v-865.013c0-43.721 35.563-79.493 79.493-79.493h457.714c43.721 0.209 79.493 35.772 79.493 79.703zM254.902 775.701h513.987v-581.975h-513.987v581.975zM283.143 908.748h457.714c15.48 0 28.241-12.552 28.241-28.241v-53.553h-514.197v53.553c0 15.689 12.761 28.241 28.241 28.241zM254.902 15.703v126.98h513.987v-126.98c0-15.48-12.552-28.241-28.241-28.241h-457.505c-15.48 0-28.241 12.552-28.241 28.241zM563.88 88.502h-103.969c-14.225 0-25.731-11.506-25.731-25.731s11.506-25.731 25.731-25.731h103.969c14.225 0 25.731 11.506 25.731 25.731s-11.506 25.731-25.731 25.731z" />
<glyph unicode="&#xe924;" glyph-name="team" d="M319.956 519.854c0-55.658 20.274-112.022 55.622-154.642 37.172-44.818 85.698-69.502 136.636-69.502 50.932 0 99.398 24.67 136.474 69.464 35.232 42.568 55.438 98.91 55.438 154.582v49.036c14.248 61.358 17.236 114.458 17.214 148.326-0.030 43.728-4.786 73.94-9.226 87.632-2.358 7.274-9.432 11.692-16.744 10.984-1.208 0.108-2.446 0.096-3.7-0.082-29.758-4.252-66.264 3.080-104.916 10.842-62.624 12.574-133.376 26.762-187.488-10.754-0.482 0.044-0.968 0.074-1.462 0.074-30.37 0-57.334-12.136-75.926-34.172-17.174-20.356-26.632-48.362-26.632-78.86 0-49.95 21.248-142.26 24.708-156.962v-25.966zM624.036 385.576c-30.884-37.316-70.598-57.868-111.822-57.868-41.246 0-81.024 20.574-112.006 57.93-30.666 36.974-48.252 85.894-48.252 134.214v19.19c0 39.574 26.574 93.372 36.66 112.362 143.892 16.442 240.204-23.292 262.068-33.524l21.442-50.524v-47.602c0-48.346-17.528-97.252-48.090-134.178zM397.806 783.814c1.16 0 2.29 0.13 3.38 0.366 4.396-0.936 9.156-0.038 13.018 2.894 43.142 32.768 105.728 20.202 166.254 8.046 32.39-6.504 63.374-12.724 92.174-12.724 3.988 0 7.934 0.12 11.838 0.376 4.822-27.094 8.716-85.422-2.128-157.568l-4.518 10.644c-1.408 3.316-3.89 6.058-7.050 7.788-4.596 2.514-114.354 61.158-292.984 38.734-5.238-0.266-10.242-3.086-13.062-7.966-1.024-1.772-14.946-26.084-26.998-57.176-5.47 29.632-10.484 62.956-10.484 85.558 0.002 55.972 35.438 81.028 70.56 81.028zM787.768 260.288c-0.344 0.096-0.692 0.18-1.042 0.254l-95.196 19.912-25.166 38.162c-0.176 0.27-0.364 0.534-0.556 0.792-4.576 6.1-11.542 10.126-19.112 11.046-7.568 0.918-15.298-1.322-21.202-6.152-0.104-0.084-0.208-0.172-0.308-0.258l-113.186-97.434-113.188 97.432c-0.102 0.086-0.204 0.172-0.306 0.258-5.904 4.83-13.634 7.072-21.202 6.154-7.57-0.92-14.538-4.946-19.112-11.046-0.194-0.258-0.38-0.522-0.556-0.792l-25.166-38.162-95.196-19.912c-0.35-0.074-0.698-0.158-1.042-0.254-27.68-7.754-51.228-24.916-68.1-49.63-15.392-22.544-23.868-49.76-23.868-76.634v-30.082c0-26.39 23.5-47.862 52.386-47.862h278.92c0.020 0 0.040-0.002 0.060-0.002 0.022 0 0.044 0.002 0.066 0.002h72.606c0.022 0 0.044-0.002 0.066-0.002 0.020 0 0.040 0.002 0.060 0.002h278.92c28.886 0 52.386 21.47 52.386 47.862v30.082c0 26.876-8.476 54.090-23.868 76.634-16.868 24.712-40.418 41.874-68.098 49.63zM642.482 296.706l19.864-30.12-79.498-109.308-47.342 47.34 106.976 92.088zM501.504 119.948h20.992l6.374-31.87h-33.74l6.374 31.87zM528 160.714c0-5.268-3.21-8.764-5.334-8.764h-21.334c-2.124 0-5.334 3.496-5.334 8.764v6.158l16 16 16-16v-6.158zM381.518 296.706l106.976-92.086-47.342-47.34-79.498 109.308 19.864 30.118zM176.262 103.942v30.082c0 37.744 23.392 82.504 68.108 95.312l90.972 19.028 90.944-125.048c2.752-3.786 7.022-6.174 11.688-6.542 0.418-0.034 0.836-0.048 1.252-0.048 4.226 0 8.3 1.674 11.312 4.686l18.658 18.658c0.846-1.564 1.776-3.064 2.8-4.484l-9.5-47.504h-265.846c-11.052-0.002-20.388 7.262-20.388 15.86zM847.738 103.942c0-8.598-9.336-15.862-20.386-15.862h-265.848l-9.5 47.504c1.024 1.42 1.954 2.92 2.8 4.484l18.658-18.658c3.012-3.012 7.086-4.686 11.312-4.686 0.416 0 0.834 0.016 1.252 0.048 4.666 0.366 8.936 2.756 11.688 6.542l90.944 125.048 90.972-19.028c44.716-12.808 68.108-57.568 68.108-95.312v-30.080zM128.33 489.842c0-38.874 13.228-75.354 37.246-102.722 24.378-27.778 56.934-43.076 91.668-43.076 26.042 0 51.114 8.692 72.508 25.134 7.006 5.384 8.32 15.43 2.934 22.436s-15.426 8.322-22.436 2.936c-15.75-12.106-34.080-18.506-53.006-18.506-53.44 0-96.916 51.050-96.916 113.798v9.404c0 25.288 10.458 58.764 15.938 74.576 34.532 3.060 65.368-1.468 90.552-5.188l2.854-0.42c0.792-0.116 1.576-0.172 2.352-0.172 7.804 0 14.638 5.718 15.808 13.672 1.288 8.742-4.756 16.872-13.498 18.16l-2.842 0.418c-29.404 4.344-65.99 9.744-108.726 4.272-0.050-0.006-0.102-0.010-0.152-0.018-0.006 0-0.012 0-0.018-0.002-0.056-0.006-0.11-0.022-0.166-0.030-0.458-0.064-0.914-0.142-1.364-0.246-0.254-0.058-0.498-0.136-0.746-0.206-0.246-0.070-0.492-0.13-0.734-0.21-0.314-0.104-0.616-0.228-0.92-0.35-0.17-0.070-0.344-0.13-0.514-0.206-0.31-0.138-0.61-0.292-0.908-0.45-0.16-0.084-0.322-0.16-0.48-0.25-0.274-0.154-0.534-0.324-0.798-0.494-0.178-0.116-0.358-0.224-0.532-0.346-0.22-0.156-0.43-0.324-0.64-0.488-0.204-0.16-0.41-0.314-0.606-0.484-0.168-0.144-0.324-0.298-0.484-0.45-0.222-0.208-0.444-0.414-0.654-0.634-0.13-0.138-0.25-0.284-0.376-0.424-0.218-0.248-0.438-0.492-0.642-0.754-0.12-0.152-0.226-0.314-0.34-0.47-0.186-0.258-0.376-0.514-0.548-0.786-0.142-0.222-0.268-0.458-0.398-0.688-0.122-0.216-0.252-0.424-0.366-0.648-0.216-0.426-0.412-0.864-0.59-1.308-0.016-0.038-0.034-0.074-0.050-0.112 0-0.002-0.004-0.012-0.006-0.014-0.014-0.038-0.028-0.074-0.042-0.11-0.278-0.714-1.432-3.704-3.078-8.374-1.278 10.174-2.116 19.756-2.116 27.432 0 34.582 16.688 50.062 33.228 50.062 0.782 0 1.544 0.074 2.296 0.182 0.758-0.11 1.522-0.184 2.292-0.184 3.374 0 6.774 1.062 9.666 3.26 14.934 11.344 34.2 15.156 62.46 12.366 8.786-0.876 16.626 5.556 17.496 14.35 0.868 8.792-5.556 16.626-14.35 17.494-21.684 2.142-53.070 2.71-80.382-15.484-38.122-0.308-64.704-33.954-64.704-82.048 0-33.696 13.284-95.106 15.83-106.566v-17.034zM112 200.042h-71.226c-5.022 0-8.774 3.004-8.774 5.692v20.482c0 23.73 14.594 51.84 42.496 59.93l58.264 12.188 30.090-43.408c3.108-4.482 8.092-6.886 13.164-6.886 3.144 0 6.322 0.926 9.1 2.852 7.262 5.034 9.068 15.002 4.034 22.264l-29.968 43.234 8.85 13.42 62.398-46.588c7.082-5.288 17.106-3.832 22.392 3.248 5.288 7.080 3.834 17.106-3.248 22.392l-68.486 51.132c-5.042 3.97-11.55 5.798-17.932 5.026-6.528-0.792-12.536-4.264-16.482-9.526-0.194-0.258-0.378-0.522-0.556-0.792l-15.976-24.226-62.752-13.126c-0.35-0.074-0.698-0.158-1.042-0.254-43.556-12.2-66.346-54.954-66.346-90.88v-20.482c0-20.784 18.292-37.692 40.774-37.692h71.226c8.836 0 16 7.164 16 16s-7.164 16-16 16zM751.68 696.046c23.524-0.47 49.532-4.68 74.686-8.75 19.004-3.074 37.208-5.992 53.016-7.008-0.558-37.888-3.042-71.96-5.862-99.394-0.032 0.024-0.066 0.044-0.098 0.068-0.252 0.184-0.512 0.356-0.774 0.524-0.122 0.078-0.23 0.166-0.354 0.24-0.138 0.084-0.282 0.162-0.422 0.246-0.018 0.010-0.036 0.022-0.056 0.032-32.018 19.284-70.822 30.41-118.62 33.994-8.82 0.668-16.49-5.948-17.152-14.758-0.662-8.812 5.946-16.492 14.758-17.152 40.77-3.058 73.78-12.010 100.736-27.304 3.79-8.938 12.132-31.56 12.132-57.538v-9.404c0-62.75-43.476-113.798-96.916-113.798-18.926 0-37.254 6.4-53.006 18.506-7.006 5.384-17.052 4.070-22.436-2.936s-4.072-17.050 2.934-22.436c21.394-16.444 46.466-25.134 72.508-25.134 34.736 0 67.292 15.298 91.668 43.076 24.018 27.37 37.246 63.85 37.246 102.722v17.292c2.248 11.96 15.458 86.444 15.812 184.888 0.41 1.578 0.59 3.244 0.49 4.96-0.502 8.538-7.62 15.102-16.070 15.040-0.134 0.004-0.266 0.020-0.402 0.020-0.31 0-0.612-0.030-0.918-0.046-15.484-0.804-38.616 2.928-63.106 6.89-25.022 4.048-53.382 8.638-79.156 9.152-8.892 0.214-16.14-6.842-16.318-15.676-0.174-8.834 6.846-16.14 15.68-16.316zM957.656 317.098c-0.344 0.096-0.692 0.18-1.042 0.254l-62.752 13.126-15.976 24.226c-0.178 0.268-0.364 0.532-0.556 0.792-3.946 5.262-9.954 8.734-16.482 9.526-6.386 0.772-12.89-1.054-17.932-5.026l-68.486-51.132c-7.082-5.286-8.536-15.312-3.248-22.392 5.288-7.082 15.314-8.536 22.392-3.248l62.398 46.588 8.85-13.42-29.97-43.232c-5.034-7.262-3.228-17.23 4.034-22.264 2.78-1.926 5.956-2.852 9.1-2.852 5.070 0 10.056 2.404 13.164 6.886l30.090 43.408 58.264-12.188c27.9-8.090 42.496-36.202 42.496-59.93v-20.482c0-2.686-3.752-5.692-8.774-5.692h-71.226c-8.836 0-16-7.164-16-16s7.164-16 16-16h71.226c22.482 0 40.774 16.908 40.774 37.692v20.482c0 35.922-22.79 78.676-66.344 90.878z" />
<glyph unicode="&#xe925;" glyph-name="telephone" d="M750.934 345.6c-68.268-68.266-68.268-136.532-136.534-136.532s-136.534 68.266-204.8 136.532c-68.266 68.268-136.534 136.534-136.534 204.8s68.266 68.266 136.534 136.534-136.534 273.066-204.8 273.066-204.8-204.8-204.8-204.8c0-136.534 140.268-413.334 273.066-546.134s409.6-273.066 546.134-273.066c0 0 204.8 136.534 204.8 204.8s-204.8 273.066-273.066 204.8z" />
<glyph unicode="&#xe926;" glyph-name="tick" d="M300.142 247.717l-193.66 193.658-106.483-106.483 255.559-255.557 0.293 0.295 46.655-46.655 721.493 721.497-108.548 108.552z" />
<glyph unicode="&#xe927;" glyph-name="tooth" d="M806.586 468.43c53.329 119.883 102.604 292.879 66.34 386.098-51.409 131.828-161.479 110.070-258.536 91.085-34.557-6.825-70.393-13.865-102.39-13.865s-67.834 7.039-102.39 13.865c-97.057 19.198-206.915 40.742-258.536-91.085-36.263-93.005 13.013-266.215 66.34-386.098 1.494-3.414 2.134-7.039 1.706-10.665-5.12-50.129-7.679-100.685-7.465-151.026 0-137.587 20.904-370.739 98.765-370.739 66.768 0 75.939 88.526 85.752 182.383 13.865 135.027 30.503 230.592 115.829 230.592 84.046 0 100.257-94.711 114.123-228.245 9.813-94.925 18.984-184.517 87.458-184.517 78.073 0 98.977 233.152 98.977 370.739 0 50.341-2.346 100.685-7.465 151.026-0.64 3.412 0 7.251 1.494 10.451zM713.367-21.338c-29.863 0-37.97 77.859-45.010 146.332-12.373 118.815-27.517 266.641-156.571 266.641-130.334 0-145.906-149.106-158.279-268.775-7.039-67.62-14.933-144.2-42.236-144.2-20.478 8.319-57.169 124.788-57.169 328.289-0.214 49.061 2.346 97.911 7.253 146.546 1.066 11.093-0.64 22.184-5.12 32.211-63.78 143.563-90.658 288.829-65.486 353.249 23.464 59.94 59.088 78.287 109.644 78.287 28.797 0 62.074-5.973 100.897-13.653 36.691-7.253 74.659-14.719 110.71-14.719s74.019 7.465 110.71 14.719c106.656 21.118 173.85 29.223 210.54-64.634 25.172-64.42-1.92-209.686-65.488-353.247-4.48-10.239-6.399-21.332-5.12-32.637 4.906-48.635 7.253-97.485 7.253-146.546-0.214-203.075-36.903-319.756-56.529-327.863z" />
<glyph unicode="&#xe928;" glyph-name="tooth2" d="M649.69 337.564c10.656 8.218 20.506 17.72 29.366 28.336 5.306 6.36 4.454 15.818-1.906 21.124-6.364 5.304-15.82 4.454-21.124-1.906-24.996-29.956-39.052-27.368-37.084-42.526 8.83-67.962-12.974-130.362-29.866-148.466-4.33 16.188 0.392 34.062-6.436 64.822-12.274 54.456-55.806 71.052-93.868 58.628-60.87-20.186-48.152-104.196-53.282-123.43-15.064 16.288-39.080 77.216-29.872 148.45 0.72 5.558-1.72 11.056-6.328 14.252-59.442 41.202-87.192 125.242-60.822 192.282h-0.002c20.362 51.288 67.338 77.426 118.25 68.028 42.568-8.054 48.762-29.704 63.86-19.68 110.046 72.988 219.194-49.17 158.454-176.382-3.566-7.476-0.396-16.428 7.078-19.994 7.476-3.564 16.428-0.398 19.994 7.078 71.708 150.42-57.968 298.938-193.82 219.45-130.012 76.068-258.936-58.794-199.060-207.514 13.456-33.422 34.67-61.79 61.648-82.562-7.976-82.874 24.536-176.364 63.134-176.398 24.93 0 29.678 30.998 29.678 55.814 0 15.058 1.644 32.634 6.752 46.802 13.664 39.232 73.596 41.358 80.602-20.268 3.618-24.346-0.55-43.884 7.026-63.166 8.67-22.062 27.428-19.178 24.494-19.182 37.786 0.038 71.19 92.744 63.134 176.408zM1023.968 459.018c0.342 5.36-2.204 10.488-6.68 13.456-46.53 30.844-108.088 23.076-145.426-17.676-0.642 14.57-2.1 28.978-4.35 43.174 79.634 2.748 130.168 84.316 100.062 156.286-2.072 4.954-6.632 8.422-11.962 9.094-50.636 6.372-98.136-21.448-117.784-67.318-4.816 10.452-10.088 20.678-15.852 30.626 71.222 36.69 82.24 132.924 22.916 185.086-4.034 3.546-9.65 4.67-14.734 2.938-43.47-14.79-74.772-55.252-76.468-102.628-3.302 3.062-17.958 16.29-21.728 18.418 0.828 82.462-84.578 138.656-160.29 103.566-4.872-2.258-8.162-6.946-8.632-12.296-7.198-82.002 73.368-144.648 151.72-115.61 0.15-0.13 0.29-0.272 0.448-0.398 206.476-166.114 150.452-498.636-91.394-588.104-7.768-2.876-11.736-11.502-8.862-19.27 2.874-7.764 11.496-11.736 19.27-8.862 22.66 8.382 44.128 18.982 64.224 31.496 30.008-72.138 123.722-93.754 181.862-38.618 3.896 3.696 5.518 9.19 4.258 14.408-12.248 50.648-58.2 87.19-111.2 86.376 12.236 13.294 23.498 27.482 33.686 42.446 56.106-54.91 148.612-36.922 181.196 33.024 2.268 4.868 1.76 10.574-1.33 14.964-30.454 43.27-86.954 59.776-135.902 39.148 5.76 16.43 10.404 33.342 13.87 50.62 71.706-32.508 154.054 16.824 159.082 95.654zM992.98 452.026c-9.598-55.12-69.912-85.238-119.68-59.432 9.638 55.316 70.082 85.154 119.68 59.432zM592.624 810.15c53.772 18.124 108.174-21.446 109.35-76.772-53.578-18.066-108.174 21.21-109.35 76.772zM793.43 668.88c-22.788 42.746-4.318 94.272 38.068 114.058 37.672-41.2 24.774-106.934-25.704-130.832-3.956 5.7-8.080 11.292-12.364 16.774zM852.838 98.318c-44.572-34.062-109.198-14.686-128.142 37.89 44.562 34.058 109.202 14.672 128.142-37.89zM956.836 263.382c-14.642-24.168-41.238-40.022-70.98-40.022 2.362 0-34.84-2.834-62.11 28.196 28.868 47.652 95.848 54.19 133.090 11.826zM942.914 634.23c15.75-53.286-24.348-107.382-80.864-106.368-15.78 53.388 24.336 107.286 80.864 106.368zM400.74 117.632c-205.134 75.888-283.466 333.702-158.308 515.924 13.748 15.738 14.566 27.282 67.202 72.432 78.418-28.734 158.498 33.988 151.324 115.756-0.47 5.348-3.764 10.040-8.632 12.298-14.824 6.87-31.298 10.5-47.648 10.5-62.82 0-113.456-51.58-112.646-114.396-2.166-1.342-12.63-10.146-21.704-18.592-1.48 47.318-32.62 88.206-76.492 103.13-5.088 1.732-10.704 0.61-14.734-2.938-59.694-52.488-47.926-148.988 23.354-185.314-5.83-10.080-11.16-20.444-16.018-31.036-19.482 46.242-67.18 74.358-118.058 67.954-5.328-0.672-9.888-4.14-11.96-9.094-30.39-72.662 21.172-153.942 100.622-156.302-2.282-14.384-3.742-28.988-4.372-43.756-37.4 41.398-99.328 49.184-145.96 18.274-4.476-2.964-7.022-8.096-6.68-13.456 4.992-78.256 87.136-128.71 159.594-95.426 3.49-17.454 8.182-34.538 14.014-51.126-49.212 21.098-106.044 4.482-136.556-38.87-3.090-4.39-3.598-10.098-1.33-14.964 32.454-69.672 125.212-88.282 181.532-32.692 10.25-15.092 21.588-29.394 33.92-42.788-54.36 0.92-99.686-36.384-111.772-86.364-1.262-5.218 0.362-10.712 4.258-14.408 57.4-54.432 151.644-34.564 181.976 38.9 20.222-12.634 41.842-23.332 64.67-31.778 7.772-2.874 16.396 1.098 19.27 8.862 2.87 7.768-1.098 16.396-8.866 19.27zM431.374 810.15c-1.184-55.672-55.876-94.79-109.352-76.772 1.182 55.576 55.772 94.826 109.352 76.772zM192.498 782.938c51.164-23.886 63.65-90.288 26.112-131.036-50.73 23.68-63.936 89.668-26.112 131.036zM31.016 452.026c49.64 25.742 110.038-4.092 119.682-59.432-49.88-25.866-110.106 4.45-119.682 59.432zM161.946 527.862c-56.634-0.998-96.57 53.214-80.864 106.368 56.916 0.9 96.524-53.398 80.864-106.368zM67.162 263.382c37.164 42.27 104.16 35.926 133.092-11.826-37.152-42.274-104.17-35.92-133.092 11.826zM171.158 98.318c18.914 52.482 83.506 72.004 128.14 37.89-19.002-52.74-83.706-71.842-128.14-37.89z" />
<glyph unicode="&#xe929;" glyph-name="tooth3" d="M164.358 620.908l-0.026 0.084c-3.172 10.578-14.302 16.502-24.878 13.326-10.58-3.174-16.558-14.406-13.384-24.986 2.596-8.656 10.522-14.22 19.114-14.22 1.91 0 3.854 0.274 5.776 0.85 10.58 3.174 16.572 14.366 13.398 24.946zM292.416 844c-92.34 0-169.644-72.088-175.992-164.116-0.76-11.020 7.556-20.568 18.576-21.328 0.468-0.032 0.934-0.048 1.396-0.048 10.418 0 19.204 8.076 19.934 18.626 4.908 71.14 64.684 126.866 136.086 126.866 11.046 0 20 8.954 20 20s-8.954 20-20 20zM762 960c-110.566 0-163.038-70.086-201.35-121.26-17.996-24.036-34.992-46.74-48.65-46.74s-30.654 22.704-48.65 46.74c-38.312 51.174-90.784 121.26-201.35 121.26-144.466 0-262-117.534-262-262 0-70.812 8.058-131.084 112.336-262.436 44.314-55.818 66.21-162.886 85.528-257.35 12.372-60.49 24.056-117.626 40.756-160.882 7.766-20.116 31.4-81.332 85.67-81.332 35.17 0 63.512 22.76 86.646 69.584 17.972 36.374 30.854 82.712 43.312 127.526 10.246 36.85 19.922 71.658 31.31 96.822 9.364 20.68 18.754 32.068 26.442 32.068s17.078-11.388 26.438-32.070c11.388-25.164 21.066-59.97 31.31-96.822 12.458-44.814 25.34-91.152 43.312-127.526 23.136-46.822 51.478-69.582 86.648-69.582 54.27 0 77.906 61.216 85.672 81.334 16.7 43.256 28.386 100.394 40.756 160.884 4.292 20.986 8.73 42.584 13.424 63.87 16.224 9.138 33.886 19.212 51.56 29.524 69.014 40.27 132.88 90.998 132.88 188.68v237.708c0 144.466-117.534 262-262 262zM984 460.294c0-73.424-43.252-113.412-113.038-154.132-46.76-27.282-93.518-52.936-112.962-63.514-19.444 10.578-66.202 36.23-112.962 63.514-69.786 40.72-113.038 80.708-113.038 154.132v208.412c40.574 11.308 151.416 46.574 226 111.944 74.584-65.372 185.426-100.636 226-111.944v-208.412zM772.212 822.084c-2.888 2.882-6.662 4.792-10.664 5.518-1.168 0.214-2.37 0.326-3.598 0.328-0.020 0-0.042 0-0.062 0-2.786-0.004-5.432-0.578-7.834-1.612-2.318-0.992-4.448-2.42-6.266-4.236-80.832-80.7-234.872-118.128-236.41-118.496-9.014-2.14-15.378-10.194-15.378-19.458v-223.834c0-97.682 63.866-148.412 132.88-188.68 61.498-35.882 122.956-68.954 123.57-69.284 2.912-1.564 6.164-2.384 9.47-2.384h0.162c3.306 0 6.558 0.82 9.47 2.384 0.244 0.13 10.046 5.406 25.586 13.942l-0.014-0.010c-2.098-10.092-4.152-20.13-6.176-30.030-21.138-103.356-42.994-210.232-87.24-210.232-44.766 0-70.634 93.052-91.42 167.822-23.596 84.876-43.974 158.178-96.288 158.178s-72.692-73.302-96.288-158.178c-20.786-74.77-46.654-167.822-91.42-167.822-44.244 0-66.102 106.874-87.238 210.23-21.206 103.684-43.13 210.9-93.39 274.206-103.664 130.576-103.664 182.544-103.664 237.564 0 122.412 99.588 222 222 222 90.544 0 134.23-58.35 169.33-105.234 25.216-33.68 46.992-62.766 80.67-62.766s55.454 29.086 80.67 62.766c35.1 46.884 78.786 105.234 169.33 105.234 118.198 0 215.116-92.84 221.648-209.432l3.594-1.12c-45.344 13.356-152.144 49.852-215.030 112.636zM758 691.938c-98.15 0-178-79.85-178-178s79.85-178 178-178 178 79.85 178 178-79.85 178-178 178zM758 375.938c-76.094 0-138 61.906-138 138s61.906 138 138 138 138-61.906 138-138-61.906-138-138-138zM863.18 584.35c-7.8 7.824-20.464 7.844-28.284 0.046l-98.836-98.518-54.956 54.778c-7.824 7.798-20.486 7.78-28.284-0.046-7.798-7.824-7.778-20.486 0.046-28.284l69.074-68.852c3.904-3.888 9.012-5.834 14.12-5.834s10.216 1.946 14.118 5.834l112.956 112.592c7.824 7.798 7.844 20.462 0.046 28.284z" />
<glyph unicode="&#xe92a;" glyph-name="twitter-logo-circle" d="M512 960c-282.795 0-512-229.227-512-512 0-282.784 229.205-512 512-512 282.773 0 512 229.216 512 512 0 282.773-229.227 512-512 512zM720.224 540.565c0.213-4.331 0.288-8.683 0.288-13.056 0-133.259-101.44-286.923-286.912-286.923-56.939 0-109.941 16.704-154.56 45.323 7.872-0.949 15.893-1.419 24.043-1.419 47.253 0 90.731 16.117 125.248 43.179-44.128 0.8-81.376 29.963-94.208 70.016 6.165-1.163 12.48-1.813 18.976-1.813 9.184 0 18.101 1.237 26.56 3.541-46.123 9.269-80.896 50.016-80.896 98.891 0 0.427 0 0.843 0.021 1.259 13.579-7.552 29.141-12.085 45.664-12.619-27.061 18.091-44.853 48.949-44.853 83.947 0 18.475 4.96 35.787 13.643 50.688 49.728-61.013 124.043-101.152 207.851-105.365-1.728 7.381-2.603 15.083-2.603 22.987 0 55.691 45.141 100.832 100.832 100.832 29.003 0 55.211-12.245 73.6-31.84 22.976 4.523 44.565 12.907 64.043 24.469-7.541-23.541-23.52-43.317-44.331-55.787 20.395 2.443 39.829 7.851 57.92 15.872-13.504-20.203-30.613-37.973-50.325-52.181z" />
<glyph unicode="&#xe92b;" glyph-name="twitter-logo" d="M1024 765.477c-37.689-16.7-78.129-28.026-120.618-33.083 43.384 25.98 76.594 67.187 92.334 116.139-40.696-24.059-85.616-41.529-133.48-50.999-38.328 40.888-92.846 66.356-153.316 66.356-116.010 0-210.072-94.062-210.072-210.009 0-16.444 1.856-32.505 5.44-47.864-174.559 8.768-329.345 92.399-432.941 219.481-18.109-30.971-28.411-67.059-28.411-105.581 0-72.883 37.113-137.191 93.423-174.815-34.426 1.151-66.804 10.621-95.15 26.363v-2.624c0-101.741 72.435-186.652 168.48-205.978-17.597-4.735-36.153-7.359-55.35-7.359-13.565 0-26.683 1.344-39.544 3.904 26.746-83.505 104.301-144.228 196.188-145.893-71.859-56.31-162.466-89.776-260.879-89.776-16.956 0-33.658 1.024-50.102 2.88 92.975-59.702 203.354-94.511 321.988-94.511 386.423 0 597.648 320.069 597.648 597.648l-0.704 27.195c41.271 29.437 76.976 66.421 105.067 108.526z" />
<glyph unicode="&#xe92c;" glyph-name="up-arrow" d="M963.671 471.020l-428.651 428.651c-5.557 5.557-14.288 9.526-23.020 9.526s-17.464-3.969-23.020-9.526l-428.651-428.651c-12.701-12.701-12.701-33.34 0-46.040 6.35-6.35 14.288-9.526 23.020-9.526s16.67 3.175 23.020 9.526l373.085 373.085v-778.716c0-18.257 14.288-32.546 32.546-32.546s32.546 14.288 32.546 32.546v778.716l373.085-373.085c12.701-12.701 33.34-12.701 46.040 0s11.907 33.34 0 46.040z" />
<glyph unicode="&#xe92d;" glyph-name="user" d="M1024 448c0 282.307-229.693 512-512 512s-512-229.693-512-512c0-149.113 64.121-283.518 166.186-377.167l-0.484-0.428 16.607-14.001c1.080-0.912 2.253-1.657 3.333-2.551 8.825-7.317 17.967-14.262 27.276-20.983 3.016-2.178 6.032-4.357 9.104-6.479 9.942-6.851 20.145-13.349 30.571-19.512 2.271-1.341 4.561-2.644 6.851-3.947 11.413-6.498 23.068-12.623 35.002-18.246 0.875-0.41 1.769-0.782 2.644-1.192 38.893-18.078 80.412-31.353 123.83-39.191 1.136-0.205 2.271-0.41 3.426-0.614 13.48-2.327 27.108-4.189 40.904-5.437 1.676-0.149 3.351-0.242 5.046-0.391 13.74-1.136 27.629-1.862 41.705-1.862 13.945 0 27.704 0.726 41.37 1.825 1.731 0.149 3.463 0.242 5.194 0.391 13.684 1.247 27.201 3.053 40.55 5.343 1.154 0.205 2.327 0.41 3.482 0.633 42.766 7.671 83.689 20.648 122.079 38.26 1.415 0.652 2.849 1.266 4.264 1.936 11.487 5.399 22.714 11.227 33.718 17.427 2.737 1.545 5.455 3.109 8.173 4.71 10.017 5.902 19.866 12.065 29.435 18.618 3.444 2.346 6.814 4.822 10.221 7.28 8.173 5.883 16.198 11.953 23.999 18.302 1.731 1.396 3.593 2.607 5.288 4.040l17.036 14.224-0.503 0.428c102.959 93.687 167.694 228.706 167.694 378.582zM37.236 448c0 261.79 212.973 474.764 474.764 474.764s474.764-212.973 474.764-474.764c0-141.070-61.905-267.897-159.912-354.918-5.474 3.779-10.985 7.168-16.626 9.998l-157.64 78.811c-14.15 7.075-22.938 21.299-22.938 37.106v55.054c3.649 4.506 7.503 9.607 11.487 15.211 20.406 28.821 36.771 60.881 48.705 95.381 23.589 11.208 38.819 34.704 38.819 61.235v66.001c0 16.142-5.921 31.8-16.514 44.106v86.891c0.968 9.681 4.394 64.195-35.058 109.177-34.313 39.173-89.851 59.001-165.087 59.001s-130.774-19.828-165.087-58.982c-39.452-44.982-36.026-99.533-35.058-109.177v-86.891c-10.575-12.307-16.514-27.965-16.514-44.106v-66.001c0-20.499 9.197-39.619 24.948-52.522 15.081-59.075 46.117-103.796 57.586-118.952v-53.881c0-15.192-8.285-29.156-21.634-36.454l-147.214-80.3c-4.692-2.551-9.346-5.53-14.001-8.862-96.796 86.984-157.789 213.029-157.789 353.075z" />
<glyph unicode="&#xe92e;" glyph-name="user2" d="M1000.542 7.422v54.457c0 55.504-25.972 108.914-69.328 142.635-100.955 78.334-203.795 133.001-239.82 151.223v62.207c7.331 16.337 13.405 34.14 18.013 53.41 26.81 9.635 41.471 49.011 51.315 83.78 13.195 46.288 11.729 78.753-3.77 96.766 16.337 89.016 9.006 154.574-21.573 194.998-16.128 21.154-34.978 30.161-47.545 34.14-9.006 12.567-27.228 33.721-58.018 50.687-31.836 18.85-67.652 28.276-107.029 28.276-7.121 0-14.243-0.419-20.526-0.838-17.594-0.838-34.978-4.189-52.153-9.844-0.209 0-0.419-0.209-0.628-0.209-18.85-6.493-37.282-15.918-55.085-28.066-20.317-12.986-38.958-28.485-55.085-45.66-31.627-32.465-52.572-69.118-61.578-108.286-8.587-32.465-9.216-65.139-2.094-97.185-3.77-2.723-7.121-5.865-10.054-9.635-14.452-19.060-15.080-49.011-2.304-94.462 8.797-31.417 20.526-63.463 40.424-77.915 5.865-30.161 15.709-57.599 28.904-81.895v-50.477c-36.025-18.222-138.865-72.679-239.82-151.223-43.356-33.721-69.328-86.922-69.328-142.635v-54.457c0-39.377 32.046-71.213 71.213-71.213h834.657c39.167 0 71.213 32.046 71.213 71.422zM74.564 7.422v54.457c0 39.795 18.432 77.915 49.43 102.002 108.914 84.408 219.713 140.122 240.867 150.385 11.729 5.655 19.060 17.384 19.060 30.58v68.071c0 4.608-1.257 9.006-3.561 12.986-13.824 23.458-23.458 51.525-28.276 83.57-1.676 10.263-9.216 18.432-19.060 20.945-2.723 3.142-10.472 14.452-20.317 49.43-8.169 28.904-7.54 42.309-6.702 47.126 8.169-0.419 16.337 3.351 21.573 9.844 5.446 6.912 6.912 16.128 3.98 24.296-10.891 30.37-12.148 61.578-3.77 93.415 7.121 30.58 23.458 59.065 48.802 85.037 13.614 14.661 29.323 27.438 46.079 38.12 0.209 0.209 0.628 0.419 0.838 0.628 14.033 9.844 28.695 17.175 43.147 22.202 0.209 0 0.419 0.209 0.419 0.209 12.358 4.189 25.134 6.493 38.539 7.121 36.654 3.142 69.537-3.77 98.651-20.736 31.836-17.594 44.822-40.633 44.822-40.633 3.98-8.169 11.101-12.986 20.317-13.614 0.628 0 14.243-2.094 25.972-18.641 12.358-17.594 29.951-62.835 7.959-168.398-2.513-11.729 3.561-23.458 14.243-28.485 1.047-3.77 2.723-16.547-6.283-48.383-7.959-28.066-14.452-40.843-18.222-46.498-4.817 0.838-9.844 0.419-14.452-1.676-7.959-3.351-13.824-10.682-15.29-19.060-4.398-25.134-11.52-47.755-20.736-67.024-1.676-3.561-2.513-7.331-2.513-11.101v-78.753c0-13.195 7.331-24.715 19.060-30.58 21.154-10.263 131.953-66.186 240.658-150.385 30.999-24.087 49.43-62.207 49.43-102.002v-54.457c0-10.891-9.006-19.898-19.898-19.898h-834.657c-11.101-0.209-20.107 8.797-20.107 19.898z" />
<glyph unicode="&#xe92f;" glyph-name="left-arrow" d="M334.45 797.181c13.95 14.438 37.168 14.438 51.606 0 13.95-13.95 13.95-37.168 0-51.086l-261.674-261.674h863.49c20.129-0.033 36.128-16.032 36.128-36.16s-15.999-36.648-36.128-36.648h-863.49l261.674-261.187c13.95-14.438 13.95-37.689 0-51.606-14.438-14.438-37.689-14.438-51.606 0l-323.622 323.622c-14.438 13.95-14.438 37.168 0 51.086l323.622 323.654z" />
<glyph unicode="&#xe930;" glyph-name="right" d="M796.565 465.567l-487.155 487.155c-9.702 9.702-25.432 9.702-35.131 0l-46.847-46.847c-4.661-4.657-7.277-10.977-7.277-17.566s2.617-12.908 7.277-17.566l422.746-422.743-422.746-422.746c-4.661-4.657-7.277-10.977-7.277-17.566s2.617-12.908 7.277-17.566l46.847-46.847c4.849-4.849 11.209-7.277 17.566-7.277s12.716 2.425 17.566 7.277l487.155 487.155c9.705 9.702 9.705 25.432 0 35.134z" />
<glyph unicode="&#xe931;" glyph-name="top" d="M494.433 732.565l-487.155-487.155c-9.702-9.702-9.702-25.432 0-35.131l46.847-46.847c4.657-4.661 10.977-7.277 17.566-7.277s12.908 2.617 17.566 7.277l422.743 422.746 422.746-422.746c4.657-4.661 10.977-7.277 17.566-7.277s12.908 2.617 17.566 7.277l46.847 46.847c4.849 4.849 7.277 11.209 7.277 17.566s-2.425 12.716-7.277 17.566l-487.155 487.155c-9.702 9.705-25.432 9.705-35.134 0z" />
<glyph unicode="&#xe932;" glyph-name="bottom" d="M529.567 163.435l487.155 487.155c9.702 9.702 9.702 25.432 0 35.131l-46.847 46.847c-4.657 4.661-10.977 7.277-17.566 7.277s-12.908-2.617-17.566-7.277l-422.743-422.746-422.746 422.746c-4.657 4.661-10.977 7.277-17.566 7.277s-12.908-2.617-17.566-7.277l-46.847-46.847c-4.849-4.849-7.277-11.209-7.277-17.566s2.425-12.716 7.277-17.566l487.155-487.155c9.702-9.705 25.432-9.705 35.134 0z" />
<glyph unicode="&#xe933;" glyph-name="instagram-circle" d="M665.6 460.8c0-84.838-68.762-153.6-153.6-153.6s-153.6 68.762-153.6 153.6c0 8.755 0.922 17.306 2.509 25.6h-53.709v-204.646c0-14.234 11.52-25.754 25.754-25.754h358.144c14.182 0 25.702 11.52 25.702 25.754v204.646h-53.709c1.587-8.294 2.509-16.845 2.509-25.6zM512 358.4c56.525 0 102.4 45.875 102.4 102.4s-45.875 102.4-102.4 102.4-102.4-45.875-102.4-102.4 45.875-102.4 102.4-102.4zM634.88 568.32h61.389c8.499 0 15.411 6.912 15.411 15.36v61.389c0 8.499-6.912 15.411-15.411 15.411h-61.389c-8.499 0-15.411-6.912-15.411-15.411v-61.389c0.051-8.448 6.963-15.36 15.411-15.36zM512 952.32c-271.462 0-491.52-220.058-491.52-491.52s220.058-491.52 491.52-491.52c271.462 0 491.52 220.058 491.52 491.52s-220.058 491.52-491.52 491.52zM768 261.683c0-31.283-25.6-56.883-56.883-56.883h-398.234c-31.283 0-56.883 25.6-56.883 56.883v398.234c0 31.283 25.6 56.883 56.883 56.883h398.234c31.283 0 56.883-25.6 56.883-56.883v-398.234z" />
<glyph unicode="&#xe934;" glyph-name="pinterest-logo" horiz-adv-x="731" d="M0 609.714c0 210.857 193.143 341.143 388.571 341.143 179.429 0 342.857-123.429 342.857-312.571 0-177.714-90.857-374.857-293.143-374.857-48 0-108.571 24-132 68.571-43.429-172-40-197.714-136-329.143l-8-2.857-5.143 5.714c-3.429 36-8.571 71.429-8.571 107.429 0 116.571 53.714 285.143 80 398.286-14.286 29.143-18.286 64.571-18.286 96.571 0 57.714 40 130.857 105.143 130.857 48 0 73.714-36.571 73.714-81.714 0-74.286-50.286-144-50.286-216 0-49.143 40.571-83.429 88-83.429 131.429 0 172 189.714 172 290.857 0 135.429-96 209.143-225.714 209.143-150.857 0-267.429-108.571-267.429-261.714 0-73.714 45.143-111.429 45.143-129.143 0-14.857-10.857-67.429-29.714-67.429-2.857 0-6.857 1.143-9.714 1.714-81.714 24.571-111.429 133.714-111.429 208.571z" />
<glyph unicode="&#xe935;" glyph-name="pinterest-circle" horiz-adv-x="878" d="M877.714 438.857c0-242.286-196.571-438.857-438.857-438.857-43.429 0-84.571 6.286-124.571 18.286 16.571 26.286 35.429 60 44.571 93.714 0 0 5.143 19.429 30.857 120.571 14.857-29.143 59.429-54.857 106.857-54.857 141.143 0 237.143 128.571 237.143 301.143 0 129.714-110.286 251.429-278.286 251.429-208 0-313.143-149.714-313.143-274.286 0-75.429 28.571-142.857 89.714-168 9.714-4 18.857 0 21.714 11.429 2.286 7.429 6.857 26.857 9.143 34.857 2.857 11.429 1.714 14.857-6.286 24.571-17.714 21.143-29.143 48-29.143 86.286 0 110.857 82.857 210.286 216 210.286 117.714 0 182.857-72 182.857-168.571 0-126.286-56-233.143-139.429-233.143-45.714 0-80 37.714-69.143 84.571 13.143 55.429 38.857 115.429 38.857 155.429 0 36-19.429 66.286-59.429 66.286-46.857 0-84.571-48.571-84.571-113.714 0 0 0-41.714 14.286-69.714-48-203.429-56.571-238.857-56.571-238.857-8-33.143-8.571-70.286-7.429-101.143-154.857 68-262.857 222.286-262.857 402.286 0 242.286 196.571 438.857 438.857 438.857s438.857-196.571 438.857-438.857z" />
<glyph unicode="&#xe936;" glyph-name="google-logo" horiz-adv-x="860" d="M438.857 501.714h414.286c4-22.286 6.857-44 6.857-73.143 0-250.286-168-428.571-421.143-428.571-242.857 0-438.857 196-438.857 438.857s196 438.857 438.857 438.857c118.286 0 217.714-43.429 294.286-114.857l-119.429-114.857c-32.571 31.429-89.714 68-174.857 68-149.714 0-272-124-272-277.143s122.286-277.143 272-277.143c173.714 0 238.857 124.571 249.143 189.143h-249.143v150.857z" />
<glyph unicode="&#xe937;" glyph-name="close" d="M810 664.667l-238-238 238-238-60-60-238 238-238-238-60 60 238 238-238 238 60 60 238-238 238 238z" />
<glyph unicode="&#xe938;" glyph-name="star-half" d="M1024 562.95l-353.78 51.408-158.22 320.582-158.216-320.582-353.784-51.408 256-249.538-60.432-352.352 316.432 166.358 316.432-166.358-60.434 352.352 256.002 249.538zM512 206.502l-0.942-0.496 0.942 570.768 111.736-226.396 249.836-36.304-180.788-176.222 42.678-248.83-223.462 117.48z" />
<glyph unicode="&#xe939;" glyph-name="birthday-cake" d="M999.444 127.398h-81.594c-0.088 0-0.177 0-0.265 0h-73.398v196.921c5.019 1.709 10.736 2.662 17.887 2.662 13.56 0 24.556 10.996 24.556 24.556v58.838c0 67.701-55.079 122.779-122.779 122.779h-188.007v137.228c0 13.56-10.996 24.556-24.556 24.556h-78.579c-13.562 0-24.556-10.996-24.556-24.556v-137.228h-188.007c-67.701 0-122.779-55.079-122.779-122.779v-58.838c0-13.56 10.996-24.556 24.556-24.556 7.151 0 12.87-0.953 17.887-2.662v-196.919h-73.447c-0.049 0-0.101 0-0.15 0h-81.656c-13.562 0-24.556-10.996-24.556-24.556 0-13.562 10.994-24.556 24.556-24.556h61.446l22.415-112.38c2.291-11.485 12.371-19.753 24.082-19.753h759.003c11.711 0 21.791 8.268 24.082 19.753l22.415 112.38h61.446c13.56 0 24.556 10.994 24.556 24.556 0 13.557-10.996 24.553-24.556 24.553zM497.266 645.825h29.467v-112.672h-29.467v112.672zM186.48 410.373c0 40.62 33.047 73.668 73.668 73.668h503.703c40.62 0 73.668-33.047 73.668-73.668v-36.917c-22.96-5.26-37.413-17.427-49.608-27.689-13.442-11.31-22.321-18.785-42.538-18.785s-29.099 7.475-42.538 18.785c-16.052 13.511-36.031 30.327-74.164 30.327-38.13 0-58.104-16.816-74.154-30.327-13.442-11.31-22.319-18.785-42.531-18.785-20.214 0-29.091 7.475-42.531 18.785-16.050 13.511-36.026 30.327-74.159 30.327-38.13 0-58.104-16.816-74.154-30.327-13.439-11.31-22.319-18.785-42.528-18.785s-29.091 7.475-42.526 18.785c-12.192 10.262-26.648 22.429-49.6 27.687v36.92zM228.925 290.273c12.499-7.072 28.212-12.406 49.684-12.406 38.13 0 58.104 16.816 74.156 30.327 13.439 11.313 22.316 18.785 42.526 18.785 20.214 0 29.094-7.475 42.533-18.785 16.050-13.511 36.026-30.327 74.156-30.327s58.107 16.816 74.159 30.327c13.439 11.315 22.316 18.785 42.526 18.785 20.217 0 29.099-7.475 42.538-18.785 16.052-13.511 36.031-30.327 74.164-30.327 21.481 0 37.202 5.336 49.704 12.413v-162.882h-566.146v162.874zM871.361-4.734h-718.721l-16.558 83.021h751.837l-16.558-83.021zM512 719.492c49.969 0 90.621 40.655 90.621 90.621 0 42.153-54.968 110.899-71.814 130.966-4.666 5.559-11.551 8.766-18.807 8.766s-14.142-3.209-18.807-8.766c-16.845-20.067-71.814-88.814-71.814-130.966 0-49.969 40.652-90.621 90.621-90.621zM512.007 885.601c22.326-30.13 41.502-62.568 41.502-75.487 0-22.889-18.621-41.509-41.509-41.509s-41.509 18.621-41.509 41.509c0 12.887 19.186 45.335 41.517 75.487z" />
<glyph unicode="&#xe93a;" glyph-name="emergency" horiz-adv-x="1085" d="M541.177-51.837c-126.219 0-252.652-0.427-378.87 0.213-38.656 0.213-73.041 14.522-102.94 39.723-30.327 25.414-48.053 58.091-56.595 96.105-1.922 8.115-2.563 16.659-2.563 25.201-0.213 162.952-0.427 325.904 0.213 488.858 0.213 37.801 14.522 71.545 38.656 101.018 25.414 30.968 58.304 48.693 96.533 57.45 8.115 1.922 16.659 2.776 24.988 2.776 45.917 0.213 91.835 0.213 137.751 0 9.398 0 14.096 0.427 16.444 12.6 7.902 40.792 27.123 76.244 56.595 106.357 37.801 38.442 84.359 59.158 136.684 66.634 67.701 9.611 131.131-4.698 186.659-45.062 42.501-30.753 68.769-73.467 80.302-124.723 3.417-15.377 3.417-15.377 18.581-15.377 41.219 0 82.65 0.213 123.87 0s77.526-13.668 108.707-40.792c32.035-27.764 51.47-62.575 56.382-104.862 1.068-8.97 2.135-18.153 2.135-27.337 0.213-159.108 0.641-318.217-0.213-477.112-0.213-38.229-14.95-72.186-39.723-101.872-25.201-30.113-57.663-47.625-95.252-56.169-8.543-1.922-17.299-2.99-26.055-2.99-127.501-0.641-254.787-0.641-382.287-0.641zM543.099 699.708c-123.016 0-246.244 0-369.259 0-8.757 0-17.513-1.068-26.268-2.135-45.703-5.126-87.776-50.402-87.776-101.018-0.213-160.389 0-320.993 0-481.382 0-6.62 1.068-13.241 1.922-19.862 6.194-47.412 53.178-87.563 103.581-87.563 249.020 0.427 498.041 0.213 747.275 0.213 8.115 0 16.018 1.281 24.133 1.922 46.558 4.911 88.417 51.47 88.417 102.513-0.213 158.681 0 317.362-0.213 476.043 0 8.115-0.854 16.231-2.135 24.133-7.474 48.693-52.325 86.922-101.872 86.922-125.792 0.213-251.797 0.213-377.801 0.213zM544.593 759.507c52.965 0 106.144 0 159.108 0 11.533 0 14.522 3.417 11.32 13.882-17.299 54.46-54.247 89.058-108.492 105.503-34.171 10.465-69.196 11.746-104.222 4.485-62.575-13.241-106.57-48.053-126.432-110.414-3.844-12.387-2.99-13.455 9.611-13.668 52.965 0.213 105.929 0.213 159.108 0.213zM623.401 159.808c-54.032 0-106.144 0-160.176 0 0 4.058 0 7.689 0 11.533 0 29.259 0 58.304 0 87.563 0 13.882 0 13.882-13.455 13.882-32.676 0-65.352 0-98.883 0 0 53.392 0 106.144 0 160.176 13.455 0 26.909 0 40.364 0 19.648 0 39.083 0.427 58.732-0.213 10.037-0.427 13.882 2.563 13.668 13.241-0.641 29.472-0.213 59.158-0.213 88.631 0 3.417 0 7.048 0 11.105 53.392 0 105.929 0 160.176 0 0-3.631 0-7.474 0-11.105 0-29.259 0-58.304 0-87.563 0-13.882 0-13.882 13.455-13.882 32.676 0 65.352 0 98.883 0 0-53.392 0-106.144 0-160.176-13.455 0-26.909 0-40.364 0-19.648 0-39.083-0.427-58.732 0.213-10.037 0.427-13.882-2.563-13.668-13.241 0.641-29.472 0.213-59.158 0.213-88.631 0-3.631 0-7.261 0-11.533zM576.628 319.557c5.126 0 8.97 0 12.814 0 29.259 0 58.304 0.213 87.563-0.213 9.183 0 13.028 3.631 12.814 12.6-0.213 13.882-0.213 27.764 0 41.646 0.213 8.543-3.417 12.387-12.174 12.174-13.241-0.427-26.268 0-39.51 0-20.075 0-40.364 0-61.508 0 0 4.698 0 8.115 0 11.533 0 29.472-0.213 59.158 0.213 88.631 0.213 9.183-3.204 13.028-12.387 13.028-13.882-0.213-27.764-0.213-41.646 0-9.183 0.213-12.6-3.631-12.387-12.814 0.427-29.472 0.213-59.158 0.213-88.631 0-3.631 0-7.474 0-11.533-34.384 0-67.060-0.213-99.737 0.213-9.611 0-13.668-3.631-13.241-13.241 0.427-13.455 0.213-27.123 0-40.577-0.213-8.97 3.417-12.814 12.6-12.814 26.268 0.427 52.751 0.213 79.020 0.213 7.048 0 13.882 0 21.357 0 0-33.957 0-66.206 0-98.455 0-12.6 1.709-14.309 13.882-14.522 12.814 0 25.629 0 38.442 0 12.174 0 13.882 1.709 13.882 14.309-0.213 32.249-0.213 64.497-0.213 98.455z" />
<glyph unicode="&#xe93b;" glyph-name="tooth-1" horiz-adv-x="1085" d="M981.973 711.563c-18.392 80.367-64.875 137.743-142 168.905-37.287 15.15-76.11 18.392-115.78 12.77-27.58-3.915-53.461-12.941-74.403-32.177-24.346-22.137-46.483-46.142-66.402-72.536-8.514-11.235-17.539-22.478-27.412-32.519-9.366-9.708-18.050-9.366-27.921-0.17-5.451 5.11-10.556 10.724-14.98 16.685-22.988 30.31-47.165 59.424-75.257 85.306-11.406 10.556-24.176 19.237-38.652 24.858-38.481 14.812-78.149 16.685-118.166 8.514-88.88-18.222-158.004-84.624-178.272-177.419-6.3-28.773-6.132-57.718-2.212-86.663 4.257-32.007 12.088-62.998 27.921-91.772 15.321-27.75 32.519-54.314 52.612-78.66 28.091-34.054 48.188-71.683 58.23-114.591 15.833-67.767 31.162-135.534 46.142-203.471 8.514-38.311 20.26-75.428 41.544-108.799 8.343-13.282 18.9-23.156 34.395-26.906 27.58-6.637 50.74 1.365 69.468 22.307 16.174 18.050 26.734 39.844 34.395 62.316 12.258 35.924 22.137 72.706 33.542 108.97 6.978 22.137 14.476 44.1 22.819 65.72 2.892 7.49 8.854 13.793 14.135 20.089 3.574 4.086 8.684 3.915 12.6 0s7.831-8.001 10.388-12.77c4.257-7.661 8.514-15.662 11.235-24.176 9.537-30.138 18.392-60.277 27.412-90.58 10.049-33.713 18.9-67.596 35.419-98.924 9.537-17.88 20.089-34.565 37.629-45.63 27.076-17.027 64.192-12.6 81.22 11.746 11.406 16.345 21.284 34.225 28.945 52.612 13.282 31.837 18.9 66.061 26.393 99.774 12.258 54.144 24.006 108.458 36.946 162.431 9.366 39.164 24.858 75.598 50.569 107.268 12.941 15.833 24.346 33.030 36.434 49.546 37.458 51.422 55.508 108.97 56.361 172.48-1.705 15.321-1.876 30.821-5.28 45.46zM941.793 590.672c-5.962-24.517-18.392-46.142-32.177-66.914-12.6-18.9-25.199-37.969-39.504-55.508-29.285-36.264-48.018-77.303-59.083-122.081-9.878-40.18-19.068-80.537-28.945-120.716-11.406-46.825-22.307-93.82-34.737-140.302-3.234-12.258-9.537-24.346-16.685-34.907-13.111-19.407-34.395-20.602-51.081-4.086-9.878 9.708-16.003 21.966-21.114 34.737-16.515 41.885-28.773 85.135-41.544 128.212-6.978 23.156-15.15 46.142-23.834 68.62-3.574 9.196-8.684 18.392-14.98 25.881-18.732 22.819-53.802 22.819-72.536 0-6.3-7.661-11.235-16.685-14.98-25.881-16.515-39.334-26.734-80.707-39.334-121.398-7.831-25.37-17.027-50.399-25.881-75.428-4.257-12.088-10.388-23.493-19.407-33.030-17.71-18.732-39.164-17.368-54.144 3.574-11.406 16.003-17.027 34.565-21.625 53.461-11.746 49.375-22.819 99.092-34.565 148.474-8.343 35.419-17.027 70.829-26.223 106.248-11.406 43.421-33.030 81.39-60.618 116.801-18.562 23.834-34.395 50.057-50.399 75.768-14.644 23.664-19.919 50.91-23.834 78.149-1.705 11.918-2.212 24.006-3.234 35.924-0.17 92.625 68.79 175.712 159.88 192.057 30.31 5.451 60.106 4.257 89.391-5.962 14.305-5.11 26.906-13.111 37.969-23.664 24.517-23.156 45.8-49.034 66.061-75.94 6.3-8.343 13.282-16.174 20.772-23.664 20.772-21.114 53.291-21.454 73.556 0.17 15.833 17.027 29.285 36.264 44.607 53.632 14.98 16.857 30.821 33.372 47.336 48.692 18.732 17.539 42.568 24.517 67.426 27.076 51.934 5.28 98.756-8.172 139.45-40.861 35.924-28.945 59.595-65.549 69.806-111.017 8.854-38.993 3.745-77.644-5.792-116.119zM357.099 793.29c-3.745 1.023-7.831 0.682-11.746 0.853-22.819-0.853-44.777-5.962-64.534-17.197-48.692-27.75-76.963-68.961-81.22-125.655-0.682-9.026 4.769-17.368 12.77-18.562 10.049-1.535 18.732 3.915 20.602 13.282 0.512 2.892 0.853 5.792 1.194 8.854 4.257 48.356 44.1 92.966 91.772 102.333 9.878 1.876 19.919 1.876 29.968 3.574 7.661 1.194 12.258 7.319 12.429 14.98 0.17 8.172-4.257 15.833-11.235 17.539zM223.609 611.443c-10.049 0-17.368-7.661-17.197-17.71 0.17-8.854 7.831-16.685 16.685-16.685 10.219-0.17 17.88 7.661 17.71 18.050-0.341 9.537-7.319 16.345-17.197 16.345z" />
<glyph unicode="&#xe93c;" glyph-name="hand" horiz-adv-x="1344" d="M1269.677 474.239c9.965 0 18.038 8.073 18.038 18.038v251.054c0 37.895-30.83 68.726-68.726 68.726-34.024 0-62.337-24.859-67.772-57.364-186.967 1.35-182.379-3.048-196.941 4.001-15.129 7.321-42.308 23.459-70.926 42.114-8.349 5.442-19.528 3.085-24.968-5.264-5.442-8.346-3.085-19.522 5.264-24.968 65.499-42.692 84.533-51.966 108.132-51.966h178.484v-349.606h-65.154c-2.481 15.759-9.647 30.22-20.208 41.607-221.12 249.084-204.602 230.846-214.287 231.030-110.905 2.060-173.553 70.145-174.136 70.792-11.975 13.438-40.542 16.025-56 1.991l-90.404-82.237c-10.519-9.568-24.060-14.177-37.494-13.679-39.342 1.454-55.104 38.669-34.263 61.164 52.098 56.246 64.215 69.305 66.301 71.549-0.556-0.596-1.36-1.456 0.333 0.387 52.267 56.77 94.984 75.481 96.711 76.646 54.901 27.599 119.867 31.325 171.311-8.082 7.914-6.063 19.235-4.562 25.294 3.348 6.060 7.906 4.564 19.229-3.348 25.294-53.635 41.094-127.855 50.167-203.073 14.778-46.32 12.826-79.054 14.427-99.855 4.854-59.431-27.347-126.869-98.439-150.229-109.744-14.67-7.099-13.974-2.69-168.972-4.001-5.435 32.507-33.747 57.364-67.772 57.364-37.895-0.005-68.726-30.838-68.726-68.733v-56.112c0-9.965 8.075-18.038 18.038-18.038 9.965 0 18.038 8.073 18.038 18.038v56.112c0 18 14.643 32.647 32.647 32.647 18 0 32.647-14.643 32.647-32.647 0-17.515 0-345.792 0-397.769 0-18-14.643-32.647-32.647-32.647-18 0-32.647 14.643-32.647 32.647v251.051c0 9.965-8.073 18.038-18.038 18.038-9.963 0-18.038-8.073-18.038-18.038v-251.051c0-37.895 30.83-68.726 68.726-68.726 33.578 0 61.594 24.213 67.543 56.091h80.649c8.17-35.289 40.234-60.681 77.585-59.415-6.671-47.422 30.838-89.294 78.814-87.669-6.671-47.427 30.835-89.294 78.814-87.667-10.134-72.023 75.251-115.129 127.644-68.031l38.482 34.596c48.854-40.846 126.028-10.259 130.181 56.069 48.685-13.71 96.105 19.994 100.57 69.218 54.144-13.074 104.563 31.566 97.587 87.158 36.265-1.677 68.93 21.162 79.618 55.745h68.947c5.95-31.877 33.966-56.091 67.543-56.091 37.895 0 68.726 30.83 68.726 68.726v60.257c0 9.965-8.073 18.038-18.038 18.038s-18.038-8.073-18.038-18.038v-60.257c0-18-14.643-32.647-32.647-32.647-18 0-32.647 14.643-32.647 32.647 0 28.66 0 331.624 0 397.769 0 18 14.643 32.647 32.647 32.647 18 0 32.647-14.643 32.647-32.647v-251.051c-0.005-9.963 8.068-18.038 18.035-18.038zM309.096 362.392c2.22 7.292 6.421 13.684 11.703 18.436 47.185 42.406 51.112 48.255 64.012 51.686 40.22 10.923 70.462-38.844 38.116-69.888l-47.436-42.638c-30.337-27.266-78.482 2.233-66.396 42.409zM396.54 235.392c-15.077 16.772-13.7 42.69 3.075 57.77 1.822 1.637-6.591-5.928 47.451 42.658 16.759 15.071 42.71 13.647 57.765-3.073h0.002c12.655-14.080 15.134-36.172-0.056-54.753-2.629-2.909-0.421-0.574-50.473-45.673-16.772-15.079-42.692-13.7-57.765 3.073zM475.352 147.72c-15.077 16.772-13.7 42.69 3.075 57.77 49.899 44.701 52.641 50.088 68.292 52.602 14.412 2.326 28.162-3.262 36.924-13.017h0.002c14.997-16.671 13.781-42.607-3.073-57.767l-47.454-42.66c-16.77-15.073-42.69-13.701-57.767 3.073zM661.885 102.125c-2.753-2.938 0.232 0.079-49.953-45.146-16.77-15.073-42.688-13.7-57.765 3.073-15.079 16.772-13.7 42.69 3.075 57.77 48.469 43.367 51.958 49.642 67.284 52.465 0.432-0.095 21.55 5.351 37.932-12.88h0.002c13.784-15.332 14.161-39.482-0.574-55.281zM981.995 320.759c-17.085 11.782-37.33-10.136-24.235-26.234 14.353-17.64 12.571-43.606-4.053-59.104-16.577-15.456-42.564-15.456-59.154-0.005-14.327 13.364-36.771-2.7-28.76-20.575 7.92-17.687 3.051-38.72-11.84-51.153-17.66-14.741-44.176-12.698-60.367 4.662l-4.536 4.865c-6.459 6.925-17.173 7.682-24.544 1.725-7.36-5.96-8.863-16.6-3.436-24.367 12.315-17.605 9.757-41.929-5.955-56.581-15.833-14.757-39.846-15.398-56.383-2.456 30.424 52.071-9.535 117.676-69.179 115.543 6.536 46.8-30.64 89.088-78.922 87.579 6.646 47.303-30.821 89.175-78.79 87.667 3.172 22.914-3.827 45.326-18.984 62.205l-0.002 0.002c-28.216 31.442-76.915 34.385-108.715 5.781-49.284-44.41-47.942-42.825-51.961-47.087-9.336-9.879-15.609-21.714-18.702-34.224h-79.737v349.611c146.317 2.215 156.972-5.351 183.734 7.603 30.479 14.744 94.491 84.093 149.595 109.44 4.167 1.918 14.949 4.75 39.203 1.11-57.185-40.5-91.261-89.997-134.425-132.579-42.417-45.806-9.494-122.16 63.144-121.781 21.935 0.111 43.039 8.249 59.366 23.095l89.456 81.379c2.242 1.326 4.971 1.306 7.193-0.027 40.308-42.462 111.858-77.587 190.995-81.033 213.452-238.714 196.994-220.235 199.341-223.201 6.376-8.526 8.481-30.319 8.458-30.076-3.085-33.62-41.069-50.2-67.796-31.787zM524.612 751.217c0.362 0.387 0.615 0.659 0 0v0z" />
<glyph unicode="&#xe93d;" glyph-name="placeholder3" horiz-adv-x="1101" d="M555.583 912c88.978-1.415 170.72-33.015 239.395-96.746 55.080-51.196 90.216-113.872 106.282-187.312 6.707-30.539 9.005-61.438 7.237-92.685-4.238-75.735-29.661-143.704-76.443-203.729-41.136-52.787-82.271-105.398-123.402-158.008-12.888-16.595-26.479-32.661-39.544-49.080-16.242-20.48-33.192-40.429-48.196-61.793-15.535-22.243-33.015-42.898-49.257-64.792-1.415-1.943-2.823-3.707-4.414-5.652-9.181-10.944-24.187-10.944-33.368 0-5.121 6.177-9.889 12.712-15.004 19.065-35.308 45.196-70.615 90.567-105.927 135.76-24.009 30.893-48.019 61.793-72.028 92.685-25.247 32.308-50.666 64.262-75.559 96.746-36.191 47.489-58.964 100.806-68.676 159.77-4.060 25.247-5.652 50.842-4.238 76.443 4.945 84.034 35.484 157.831 91.801 220.501 52.434 58.435 117.755 95.508 194.552 111.75 23.656 4.767 47.843 6.707 76.797 7.061zM234.453 553.795c-0.177-15.888 1.238-31.424 3.707-47.136 8.474-54.902 29.661-104.513 63.907-148.296 15.182-19.418 30.189-38.838 45.373-58.086 65.5-84.034 131.169-168.067 196.845-252.101 1.238-1.591 2.469-3.176 3.707-4.591 1.591-1.591 3.53-1.768 5.121-0.177 1.060 0.884 1.943 1.943 2.647 3.176 40.606 52.079 81.211 104.16 121.993 156.239 40.429 51.726 81.211 103.276 121.109 155.355 57.555 75.029 78.736 159.593 62.146 252.632-12.359 69.206-45.020 128.169-97.277 175.132-75.559 67.968-164.007 94.453-264.46 79.089-62.146-9.536-116.341-36.368-162.422-79.089-67.438-62.67-100.629-140.528-102.398-232.152zM514.453 762.999c-47.312-8.121-88.448-29.131-121.286-64.262-54.375-58.261-72.559-127.109-53.848-204.082 25.954-107.159 132.583-183.426 253.162-160.477 59.493 11.297 106.105 43.429 139.644 93.746 31.424 47.136 41.844 99.391 33.368 155.355-1.415 9.536-3.883 18.889-6.707 28.070-3 9.712-13.419 15.358-22.949 13.596-10.413-1.768-17.833-10.237-17.833-20.48 0-3 0.707-6.177 1.415-9.181 7.945-29.485 8.652-58.964 1.415-88.625-22.069-91.27-112.634-149.179-204.613-130.645-93.216 18.711-154.831 107.159-138.766 200.552 10.768 62.847 46.605 107.159 104.691 133.114 28.247 12.535 58.086 16.595 88.801 12.535 9.536-1.238 18.889-3.53 28.247-5.652 8.474-1.943 16.066-1.060 22.418 5.475 11.297 11.651 6.177 30.539-9.889 35.308-19.949 6.003-40.251 8.828-61.085 9.359-12.005-1.238-24.363-1.768-36.191-3.707zM668.571 687.439c-0.177-12.005 9.536-21.894 21.54-21.894 11.651 0 21.717 9.889 21.364 21.54-0.353 13.243-12.005 21.894-21.717 21.187-12.005 0-21.187-9.005-21.187-20.833z" />
<glyph unicode="&#xe93e;" glyph-name="play" d="M305.159 792.129c-64.912 37.237-117.538 6.727-117.538-68.072v-552.039c0-74.883 52.627-105.346 117.538-68.152l482.51 276.725c64.934 37.242 64.934 97.59 0 134.839l-482.51 276.719z" />
<glyph unicode="&#xe93f;" glyph-name="tooth-2" horiz-adv-x="1184" d="M1089.288 618.496c-36.503 40.875-86.757 63.387-141.49 63.387-29.118 0-59.251-11.757-82.127-22.671-1.247-0.593-3.895-1.085-3.966 1.432-4.887 54.567-26.517 102.857-61.938 142.515-43.005 48.145-102.179 74.653-166.648 74.653-50.53 0-104.41-29.721-143.781-51.443-11.954-6.591-31.565-18.664-37.289-18.664-5.693 0-25.138 11.998-37.125 18.62-39.271 21.731-93.051 51.488-143.939 51.488-64.463 0-123.648-26.511-166.648-74.653-40.832-45.709-63.316-105.864-63.316-169.362 0-89.793 32.178-217.331 86.073-341.172 23.989-55.123 49.547-102.788 73.906-137.847 29.658-42.68 55.521-63.425 79.059-63.425 10.885 0 30.793 4.504 41.719 34.732 9.805 27.128 18.601 58.157 27.972 91.228 22.996 81.181 54.494 192.374 100.736 192.374 0 0 4.715-0.15 5.031-4.086 10.11-66.943 33.157-141.31 66.234-217.321 20.157-46.311 41.638-86.371 62.13-115.861 25.371-36.497 47.736-54.237 68.374-54.237 9.816 0 27.749 4.006 37.445 30.848 8.254 22.831 15.635 48.879 23.477 76.543 19.014 67.133 45.058 159.081 81.745 159.081h2.615c15.769 0 30.399-14.6 44.733-44.638 15.097-31.61 26.677-74.029 37.874-115.059 7.495-27.433 14.57-53.351 22.586-75.835 9.519-26.712 27.286-30.716 37.035-30.718 20.566 0 42.922 18.013 68.33 55.056 20.435 29.782 41.96 70.23 62.246 116.973 45.476 104.816 72.632 211.174 72.632 284.51-0.006 53.815-19.068 104.8-53.693 143.557zM449.48 474.937c0-6.859 0.233-14.104 0.686-21.626 0.041-0.664 0.487-2.914-2.766-2.695-36.436-0.090-63.513-24.98-88.716-77.51-19.708-41.076-34.586-93.622-48.975-144.437l-0.101-0.36c-9.093-32.072-17.678-62.362-26.972-88.052-1.23-3.411-2.113-6.597-3.49-7.040-3.686-1.184-17.85 7.748-43.963 45.319-22.506 32.391-47.336 78.812-69.926 130.714-50.962 117.097-82.619 241.462-82.619 324.562 0 99.487 70.454 202.393 188.343 202.393 30.563 0 70.892-14.031 107.875-37.529 5.365-3.409 13.064-9.324 20.511-15.048 3.007-2.317 5.969-4.594 8.731-6.674 8.926-6.677 20.974-15.412 35.119-23.735 7.437-4.392 14.21-8.293 21.777-11.511 30.686-13.020 63.214-19.629 96.682-19.629 34.182 0 84.475 8.786 83.644 15.613-0.829 6.824-61.493-2.94-124.494 17.481-16.364 5.304-37.462 11.259-37.451 17.94 0.002 1.842 5.929 5.091 10.11 7.59 4.466 2.664 9.531 5.693 15.978 9.251 35.379 19.522 83.839 46.254 123.654 46.254 115.784 0 185.801-99.249 188.278-197.040 0.030-1.088 0.188-3.083-2.010-4.425-7.515-4.124-18.587-11.454-23.154-11.454-5.185 0-21.577 10.632-29.8 15.178-33.12 18.328-78.478 43.425-121.759 43.425-54.737 0-104.991-22.512-141.496-63.387-34.635-38.763-53.7-89.748-53.7-143.565zM1033.455 206.428c-18.996-43.791-39.78-82.938-58.506-110.23-16.789-24.473-27.475-39.314-32.115-36.346-1.31 0.836-3.288 5.779-3.763 7.125-7.495 21.026-12.845 41.862-20.137 68.563-11.659 42.737-23.725 86.921-40.375 121.796-21.7 45.431-48.199 67.516-81.017 67.516h-2.615c-31.705 0-57.637-21.913-79.269-66.994-16.578-34.562-29.079-78.667-41.159-121.335-7.631-26.906-14.827-52.317-22.602-73.833-0.538-1.497-1.33-3.202-2.197-3.586-3.775-1.639-14.573 10.020-32.8 36.251-18.732 26.944-39.427 65.641-58.275 108.951-42.524 97.708-68.935 201.401-68.935 270.62 0 81.965 57.966 166.744 154.975 166.744 25.092 0 58.317-11.59 88.861-31 4.356-2.766 10.686-7.633 16.912-12.413 2.548-1.961 5.056-3.887 7.401-5.643 7.495-5.621 17.637-12.975 29.639-20.044 6.327-3.734 12.082-7.046 18.549-9.79 26.019-11.041 53.592-16.644 81.973-16.644 29.065 0 84.939 8.212 84.363 17.499-0.372 5.952-62.788-1.85-117.861 15.475-11.195 3.519-27.128 9.030-27.524 11.162-0.377 2.006 3.304 4.11 5.344 5.326 3.708 2.217 7.909 4.723 13.272 7.68 29.363 16.2 69.58 38.39 102.225 38.39 97.007 0 154.975-84.781 154.975-166.744-0.022-67.093-26.58-169.979-69.339-268.501z" />
<glyph unicode="&#xe940;" glyph-name="tooth-3" horiz-adv-x="1072" d="M965.116 868.333l-425.056 91.244c-2.678 0.564-5.432 0.564-8.115 0l-425.061-91.244c-8.909-1.908-15.264-9.774-15.264-18.889v-231.833c0-240.646 170.974-531.851 381.134-649.119l53.83-30.040c2.927-1.64 6.169-2.453 9.416-2.453s6.489 0.813 9.416 2.453l53.83 30.040c210.166 117.282 381.134 408.496 381.134 649.119v231.833c0 9.114-6.355 16.981-15.264 18.889zM580.42 2.23l-44.415-24.775-44.415 24.775c-199.24 111.19-361.322 387.25-361.322 615.382v216.206l405.732 87.117 405.737-87.113v-216.211h0.005c0-228.118-162.089-504.173-361.322-615.382zM679.215 740.153c-17.311 10.965-42.736 7.622-77.965 3.056-20.18-2.621-43.047-5.604-65.254-5.604-22.203 0.010-45.070 2.989-65.25 5.614-35.2 4.605-60.659 7.885-77.965-3.037-54.801-34.64-66-124.57-26.535-206.738-2.3-17-3.462-36.022-3.462-56.661 0-95.266 26.181-185.453 70.027-241.23 4.945-6.264 13.217-8.851 20.849-6.527 7.632 2.338 13.036 9.134 13.614 17.095 9.009 125.569 45.696 192.435 68.726 192.435 23.283 0 60.181-67.679 68.898-194.74 0.536-7.924 5.877-14.7 13.442-17.095 1.913-0.603 3.888-0.909 5.829-0.909 5.719 0 11.266 2.549 15.001 7.149 45.151 55.624 72.102 146.777 72.102 243.812 0 21.696-1.415 41.641-4.208 59.435 37.753 81.226 25.99 169.926-27.85 203.945zM667.992 535.607c3.075-17.057 4.643-36.85 4.643-58.832 0-64.963-12.792-126.454-35.329-173.943-13.519 89.508-45.424 174.359-101.305 174.359-55.107 0-86.964-83-100.775-171.002-21.567 47.073-33.804 107.34-33.804 170.586 0 21.189 1.31 40.302 3.888 56.848 0.631 4.017-0.029 8.153-1.879 11.773-32.603 63.829-28.027 138.079 9.942 162.079 6.283 3.395 32.943-0.057 52.386-2.587 21.342-2.774 45.519-5.925 70.237-5.925s48.91 3.156 70.251 5.93c19.453 2.53 46.093 6.020 52.319 2.606 37.964-23.981 42.951-95.701 11.123-159.87-1.841-3.716-2.444-7.938-1.698-12.022z" />
</font>
</defs>
</svg>
